.
Авторизация | Регистрация

bitok.xyz

» » Мстители: Финал / Avengers: Endgame (2019) WEBRip [H.264 / 2160p] [4K] [IMAX Edition] [Тизер] [EN] торрент скачать бесплатно


    Мстители: Финал / Avengers: Endgame (2019) WEBRip [H.264 / 2160p] [4K] [IMAX Edition] [Тизер] [EN] торрент скачать бесплатно

    Дата: 12-02-2019, 05:00 | .torrent скачали: 39

    Мстители: Финал / Avengers: Endgame (2019) WEBRip [H.264 / 2160p] [4K] [IMAX Edition] [Тизер] [EN]Производство: США/Marvel Studios Inc., Weta Digital, Legacy Effects
    Жанр: Фантастика, Фэнтези, Боевик, Приключения
    Режиссер: Энтони Руссо, Джо Руссо

    Актеры
    Брэдли Купер, Бри Ларсон, Скарлетт Йоханссон, Эванджелин Лилли, Крис Хемсворт, Карен Гиллан, Джош Бролин, Том Холланд, Роберт Дауни мл., Крис Эванс

    Описание

    Оставшиеся в живых члены команды Мстителей и их союзники должны разработать новый план, который поможет противостоять разрушительным действиям могущественного титана Таноса. После наиболее масштабной и трагической битвы в истории они не могут допустить ошибку.

    Дата мировой премьеры: 24 апреля 2019
    Дата российской премьеры: 25 апреля 2019, WDSSPR

    Продолжительность: 00: 02: 27
    Качество видео: WEBRip
    Перевод: Отсутствует
    Язык озвучки: Английский
    Субтитры: Отсутствуют
    Видео: AVC/H.264, 3840x2160 (16: 9), ~41.4 Mbps
    Аудио: PCM, 6 ch, 6912 Kbps
    Общее
    Уникальный идентификатор : 20321667603093240670915159650190969869 (0xF49CF919D99AF3B15265873E91F4C0D)
    Полное имя : V: TorrentsAvengers. Endgame (2019) WEBRip IMAX 4K 2160p Teaser.mkv
    Формат : Matroska
    Версия формата : Version 4/Version 2
    Размер файла : 849 Мбайт
    Продолжительность : 2 м. 27 с.
    Общий поток : 48, 3 Мбит/сек
    Дата кодирования : UTC 2019-02-08 17: 04: 02
    Программа кодирования : mkvmerge v30.1.0 (\'Forever And More\') 64-bit
    Библиотека кодирования : libebml v1.3.6 + libmatroska v1.4.9
    Видео
    Идентификатор : 1
    Формат : AVC
    Формат/Информация : Advanced Video Codec
    Профиль формата : High@L5.1
    Настройки формата : CABAC/1 Ref Frames
    Параметр CABAC формата : Да
    Параметр RefFrames формата : 1 кадр
    Идентификатор кодека : V_MPEG4/ISO/AVC
    Продолжительность : 2 м. 27 с.
    Битрейт : 41, 4 Мбит/сек
    Ширина : 3840 пикселей
    Высота : 2160 пикселей
    Соотношение сторон : 16: 9
    Режим частоты кадров : Постоянный
    Частота кадров : 24, 000 кадра/сек
    Цветовое пространство : YUV
    Субдискретизация насыщенности : 4: 2: 0
    Битовая глубина : 8 бит
    Тип развёртки : Прогрессивная
    Бит/(Пиксели*Кадры) : 0.208
    Размер потока : 728 Мбайт (86%)
    Default : Да
    Forced : Нет
    Цветовой диапазон : Limited
    Основные цвета : BT.709
    Характеристики трансфера : BT.709
    Коэффициенты матрицы : BT.709
    Аудио
    Идентификатор : 2
    Формат : PCM
    Идентификатор кодека : A_PCM/INT/LIT
    Продолжительность : 2 м. 26 с.
    Вид битрейта : Постоянный
    Битрейт : 6912 Кбит/сек
    Каналы : 6 каналов
    Частота : 48, 0 КГц
    Частота кадров : 32, 005 кадра/сек (1500 SPF)
    Битовая глубина : 24 бит
    Задержка видео : 30 мс.
    Размер потока : 121 Мбайт (14%)
    Язык : English
    Default : Да
    Forced : Нет

    Скриншоты для ознакомления



    Все одноименные релизы в Клубе
    Время раздачи: с 10: 00 до 22: 00 (до 10 скачавших)

    Онлайн видео Мстители: Финал



    Мстители: Финал/Avengers: Endgame (2019) WEBRip [H.264/2160p] [4K] [IMAX Edition] [Тизер] [EN]
    Рейтинг →
     (голосов: 1, оценка 5/5, голосовать можно 1 раз )

    Другие торренты по теме:

  • Мстители: Финал / Avengers: Endgame (2019) WEBRip [H.264 / 2160p] [4K] [Трейлер №2] [EN]
  • Alan Silvestri - Avengers: Endgame / Мстители: Финал (Original Motion Picture Soundtrack) (2019) [MP3|320 кб / с]<Soundtrack>
  • Alan Silvestri - Avengers: Endgame / Мстители: Финал (Original Motion Picture Soundtrack) (2019) [FLAC|Lossless|WEB-DL|tracks]<Soundtrack>
  • Мстители: Финал / Avengers: Endgame (2019) TS [H.264 / 720p-LQ] [MVO] [AD]
  • Мстители: Финал / Avengers: Endgame (2019) TC [EN / RU Sub] [Proper]
  • Мстители: Финал / Avengers: Endgame (2019) TC [Line]
  • Мстители: Финал / Avengers: Endgame (2019) TC [H.264 / 720p-LQ] [Line]
  • Мстители: Финал / Avengers: Endgame (2019) WEB-DLRip [H.264 / 1080p-LQ] [IMAX, Line, AD]


    • Комментарии (0):

      Информация

      Информация

        Посетители, находящиеся в группе Гости, не могут оставлять комментарии в данной новости.

        ↓ Меню




        ↓ Опрос

        Вы добавили сайт в закладки?
        Да
        Нет


        Популярное