.
Авторизация | Регистрация

bitok.xyz

» » Оверлорд / Overlord (2018) BDRip [H.264 / 1080p] торрент скачать бесплатно


    Оверлорд / Overlord (2018) BDRip [H.264 / 1080p] торрент скачать бесплатно

    Дата: 13-02-2019, 05:00 | .torrent скачали: 2

    Оверлорд / Overlord (2018) BDRip [H.264 / 1080p]Производство: США/Bad Robot, Paramount Pictures
    Жанр: Ужасы, фантастика, боевик, детектив, приключения, военный
    Режиссер: Джулиус Эйвери

    Актеры
    Джован Адепо, Уайатт Расселл, Матильда Олливье, Йохан Филип Асбек, Джон Магаро, Иэн де Кестекер, Джейкоб Андерсон, Доминик Эпплуайт, Джанни Тофер, Джозеф Куинн

    Описание

    Накануне высадки союзников в Нормандии два американских десантника проникают в оккупированный немцами посёлок, чтобы разрушить их радиомачту. Лазутчикам предстоит столкнуться не только с фашистскими военными, но и с паранормальными последствиями нацистских экспериментов.

    Возраст: 18+ (зрителям, достигшим 18 лет. запрещено для детей)
    Рейтинг MPAA: R (лицам до 17 лет обязательно присутствие взрослого)
    Дата мировой премьеры: 22 сентября 2018
    Дата российской премьеры: 8 ноября 2018
    Релиз от: Селезень
    Продолжительность: 01: 49: 47
    Качество видео: BDRip
    Перевод: Дублированный (Лицензия BD EUR )
    Субтитры: Русские, английские
    Видео: AVC/H.264, 1920x800, ~20, 4 Mbps
    Аудио #1: AC3, 6 ch, 640 Kbps | Русский (DUB, Лицензия)
    Аудио #2: AC3, 6 ch, 640 Kbps | Английский
    General
    Unique ID : 190622916086833405206579373489769592357 (0x8F68A3623DF73FD3892FB7C04096B625)
    Complete name : Overlord.2018.BDRip.1080p.seleZen.mkv
    Format : Matroska
    Format version : Version 4
    File size : 16.6 GiB
    Duration : 1 h 49 min
    Overall bit rate : 21.6 Mb/s
    Movie name : Overlord 2018 from селезень
    Encoded date : UTC 2019-02-12 06: 33: 57
    Writing application : mkvmerge v29.0.0 (\'Like It Or Not\') 64-bit
    Writing library : libebml v1.3.6 + libmatroska v1.4.9
    Video
    ID : 1
    Format : AVC
    Format/Info : Advanced Video Codec
    Format profile : High@L4.1
    Format settings : CABAC/5 Ref Frames
    Format settings, CABAC : Yes
    Format settings, ReFrames : 5 frames
    Codec ID : V_MPEG4/ISO/AVC
    Duration : 1 h 49 min
    Bit rate : 20.4 Mb/s
    Width : 1 920 pixels
    Height : 800 pixels
    Display aspect ratio : 2.40: 1
    Frame rate mode : Constant
    Frame rate : 23.976 (24000/1001) FPS
    Color space : YUV
    Chroma subsampling : 4: 2: 0
    Bit depth : 8 bits
    Scan type : Progressive
    Bits/(Pixel*Frame) : 0.553
    Stream size : 15.6 GiB (94%)
    Title : MTeam
    Writing library : x264 core 157 r2938 2b00a84 TnP@MTeam Mod
    Encoding settings : cabac=1/ref=5/deblock=1: -3: -3/analyse=0x3: 0x133/me=umh/subme=10/psy=1/psy_rd=1.05: 0.00/mixed_ref=1/me_range=24/chroma_me=1/trellis=2/8x8dct=1/cqm=0/deadzone=21, 11/fast_pskip=0/chroma_qp_offset=-2/threads=12/lookahead_threads=2/sliced_threads=0/nr=0/decimate=0/interlaced=0/bluray_compat=0/constrained_intra=0/bframes=8/b_pyramid=2/b_adapt=2/b_bias=0/direct=3/weightb=1/open_gop=0/weightp=2/keyint=250/keyint_min=24/scenecut=40/intra_refresh=0/rc_lookahead=250/rc=crf/mbtree=0/crf=16.8/qcomp=0.60/qpmin=0/qpmax=69/qpstep=4/vbv_maxrate=62500/vbv_bufsize=78125/crf_max=0.0/nal_hrd=none/filler=0/ip_ratio=1.30/pb_ratio=1.20/aq=3: 0.80
    Language : English
    Default : Yes
    Forced : No
    Color range : Limited
    Color primaries : BT.709
    Matrix coefficients : BT.709
    Audio #1
    ID : 2
    Format : AC-3
    Format/Info : Audio Coding 3
    Commercial name : Dolby Digital
    Codec ID : A_AC3
    Duration : 1 h 49 min
    Bit rate mode : Constant
    Bit rate : 640 kb/s
    Channel(s) : 6 channels
    Channel layout : L R C LFE Ls Rs
    Sampling rate : 48.0 kHz
    Frame rate : 31.250 FPS (1536 SPF)
    Bit depth : 16 bits
    Compression mode : Lossy
    Stream size : 502 MiB (3%)
    Title : Dub License
    Language : Russian
    Service kind : Complete Main
    Default : Yes
    Forced : Yes
    Audio #2
    ID : 3
    Format : AC-3
    Format/Info : Audio Coding 3
    Commercial name : Dolby Digital
    Codec ID : A_AC3
    Duration : 1 h 49 min
    Bit rate mode : Constant
    Bit rate : 640 kb/s
    Channel(s) : 6 channels
    Channel layout : L R C LFE Ls Rs
    Sampling rate : 48.0 kHz
    Frame rate : 31.250 FPS (1536 SPF)
    Bit depth : 16 bits
    Compression mode : Lossy
    Stream size : 503 MiB (3%)
    Title : Original
    Language : English
    Service kind : Complete Main
    Default : No
    Forced : No
    Text #1
    ID : 4
    Format : UTF-8
    Codec ID : S_TEXT/UTF8
    Codec ID/Info : UTF-8 Plain Text
    Duration : 1 h 22 min
    Bit rate : 5 b/s
    Count of elements : 94
    Stream size : 3.22 KiB (0%)
    Title : Forced
    Language : Russian
    Default : Yes
    Forced : Yes
    Text #2
    ID : 5
    Format : UTF-8
    Codec ID : S_TEXT/UTF8
    Codec ID/Info : UTF-8 Plain Text
    Duration : 1 h 42 min
    Bit rate : 59 b/s
    Count of elements : 1017
    Stream size : 45.0 KiB (0%)
    Title : Full
    Language : Russian
    Default : No
    Forced : No
    Text #3
    ID : 6
    Format : UTF-8
    Codec ID : S_TEXT/UTF8
    Codec ID/Info : UTF-8 Plain Text
    Duration : 1 h 42 min
    Bit rate : 49 b/s
    Count of elements : 1447
    Stream size : 37.3 KiB (0%)
    Title : SDH
    Language : English
    Default : No
    Forced : No
    Menu
    00: 00: 00.000 : en: Chapter 01
    00: 06: 31.099 : en: Chapter 02
    00: 13: 47.493 : en: Chapter 03
    00: 20: 31.313 : en: Chapter 04
    00: 26: 27.795 : en: Chapter 05
    00: 34: 08.964 : en: Chapter 06
    00: 41: 10.593 : en: Chapter 07
    00: 48: 41.377 : en: Chapter 08
    00: 55: 50.889 : en: Chapter 09
    01: 03: 21.464 : en: Chapter 10
    01: 10: 28.599 : en: Chapter 11
    01: 17: 21.887 : en: Chapter 12
    01: 25: 47.601 : en: Chapter 13
    01: 32: 19.159 : en: Chapter 14
    01: 38: 48.464 : en: Chapter 15
    01: 42: 39.195 : en: Chapter 16

    Скриншоты для ознакомления



    Все одноименные релизы в Клубе
    Время раздачи: 24/7 (до появления первых 3-5 скачавших)

    Онлайн видео Оверлорд



    Оверлорд/Overlord (2018) BDRip [H.264/1080p]
    Рейтинг →
     (голосов: 1, оценка 4/5, голосовать можно 1 раз )

    Другие торренты по теме:

  • Оверлорд / Overlord (2018) CamRip [AD]
  • Оверлорд / Overlord (2018) WEBRip [Line, AD]
  • Оверлорд / Overlord (2018) WEBRip [H.264 / 1080p-LQ] [Line, AD]
  • Оверлорд / Overlord (2018) HDRip [UKR / Ukr Sub]
  • Оверлорд / Overlord (2018) BDRip [H.264 / 1080p] [UKR, EN / Ukr, Eng Sub]
  • Оверлорд / Overlord (2018) HDRip
  • Оверлорд / Overlord (2018) BDRip [H.264 / 720p] [PR]
  • Оверлорд / Overlord (2018) BDRip [H.264 / 720p]


    • Комментарии (0):

      Информация

      Информация

        Посетители, находящиеся в группе Гости, не могут оставлять комментарии в данной новости.

        ↓ Меню




        ↓ Опрос

        Вы добавили сайт в закладки?
        Да
        Нет


        Популярное