.
Авторизация | Регистрация
bitok.xyz
» » Гоголь (2019) HDTVRip (сезон 1, серии 1-8 из 8) торрент скачать бесплатно


    Гоголь (2019) HDTVRip (сезон 1, серии 1-8 из 8) торрент скачать бесплатно

    Дата: 6-04-2019, 05:00 | .torrent скачали: 60

    Гоголь (2019) HDTVRip (сезон 1, серии 1-8 из 8)Производство: Россия/Продюсерский центр Среда
    Жанр: детектив, драма, приключения
    Режиссер: Егор Баранов

    Актеры
    Александр Петров, Олег Меньшиков, Евгений Стычкин, Таисия Вилкова, Юлия Франц, Ян Цапник, Евгений Сытый, Сергей Бадюк, Артем Ткаченко, Марта Тимофеева и др.

    Описание

    Такого Гоголя тебе в кино не покажут. Абсолютно новые серии, которые изменят все – киносериал Гоголь, который будет состоять из восьми серий и включать два совершенно новых эпизода.Восьмисерийный киносериал Гоголь включает более ста минут свежего и оригинального контента, который не видел ещё никто.

    Возраст: 16+ (зрителям, достигшим 16 лет)
    Дата российской премьеры: 25 марта 2019 (ТВ3)
    Продолжительность: ~00: 48: 00 серия
    Качество видео: HDTVRip
    Видео: Xvid, 720x400 (16: 9), ~1692 kbps
    Аудио: AC3, 2 ch, 192 kbps
    General
    Complete name : D: Мои фильмыGogol\'_S1_1-8iz8_2019_XviD_HDTVRip1.Убийства в Диканьке.avi
    Format : AVI
    Format/Info : Audio Video Interleave
    File size : 701 MiB
    Duration : 51 min 43 s
    Overall bit rate : 1 894 kb/s
    Writing library : VirtualDub2 build 41867/release
    Video
    ID : 0
    Format : MPEG-4 Visual
    Format profile : Advanced Simple@L5
    Format settings : BVOP2
    Format settings, BVOP : 2
    Format settings, QPel : No
    Format settings, GMC : No warppoints
    Format settings, Matrix : Default (H.263)
    Codec ID : XVID
    Codec ID/Hint : XviD
    Duration : 51 min 43 s
    Bit rate : 1 692 kb/s
    Width : 720 pixels
    Height : 400 pixels
    Display aspect ratio : 16: 9
    Frame rate : 25.000 FPS
    Color space : YUV
    Chroma subsampling : 4: 2: 0
    Bit depth : 8 bits
    Scan type : Progressive
    Compression mode : Lossy
    Bits/(Pixel*Frame) : 0.235
    Stream size : 626 MiB (89%)
    Writing library : XviD 67
    Audio
    ID : 1
    Format : AC-3
    Format/Info : Audio Coding 3
    Commercial name : Dolby Digital
    Codec ID : 2000
    Duration : 51 min 43 s
    Bit rate mode : Constant
    Bit rate : 192 kb/s
    Channel(s) : 2 channels
    Channel layout : L R
    Sampling rate : 48.0 kHz
    Frame rate : 31.250 FPS (1536 SPF)
    Bit depth : 16 bits
    Compression mode : Lossy
    Stream size : 71.0 MiB (10%)
    Alignment : Aligned on interleaves
    Interleave, duration : 40 ms (1.00 video frame)
    Interleave, preload duration : 512 ms
    Service kind : Complete Main

    Скриншоты для ознакомления



    Все одноименные релизы в Клубе
    Время раздачи: с 07: 00 до 23: 00 (до появления первых 3-5 скачавших)

    Онлайн видео Гоголь (2019) HDTVRip (сезон любимого сериала 1, серии 1



    Гоголь (2019) HDTVRip (сезон 1, серии 1-8 из 8)
    Рейтинг →
     (голосов: 1, оценка 4/5, голосовать можно 1 раз )

    Другие торренты по теме:

  • Гоголь (2019) HDTVRip [H.264 / 720p-LQ] (сезон 1, серии 1-8 из 8)


    • Комментарии (0):

      Информация

      Информация

        Посетители, находящиеся в группе Гости, не могут оставлять комментарии в данной новости.

        ↓ Меню




        ↓ Опрос

        Вы добавили сайт в закладки?
        Да
        Нет


        Популярное

        Полицейский с Рублёвки. Новогодний беспредел 2 (2019) CamRip [AD]

        (скачиваний: 2276)
        Властелин колец: Трилогия / The Lord of the Rings: Trilogy (2001,2002,2003) BDRip [H.264] [Extended Editions] скачать через торрент бесплатно

        (скачиваний: 672)
        Властелин колец / The Lord of the Rings (2001,2002,2003) BDRip [Extended Edition] [H.264 / 1080p-LQ] [Hi10P]

        (скачиваний: 661)
        Начало / Inception (2010) BDRip [H.265 / 1080p]

        (скачиваний: 642)
        Властелин колец / The Lord of the Rings (2001,2002,2003) BDRip [1080p] [Extended Edition] [Трилогия]

        (скачиваний: 608)
        Квартирник НТВ у Маргулиса. Новогодний выпуск (31.12.2019) WEB-DL [H.264 / 1080p-LQ]

        (скачиваний: 456)
        Каникулы off-line (2018) WEBRip

        (скачиваний: 438)
        Хоббит: Трилогия / The Hobbit: Trilogy (2012, 2013, 2014) BDRip [H.265 / 1080p-LQ] [10-bit] [Расширенная версия]

        (скачиваний: 398)
        Властелин колец / The Lord of the Rings (2001,2002,2003) BDRip [1080p] [Extended Edition] [Трилогия] скачать через торрент бесплатно

        (скачиваний: 277)
        Во все тяжкие / Breaking Bad (2008-2013) BDRip [H.264 / 1080p] (сезон 1-5, серии 1-62 из 62) Кубик в Кубе, LostFilm скачать через торрент бесплатно

        (скачиваний: 256)