.
Авторизация | Регистрация

bitok.xyz

» » Закатать в асфальт / Dragged Across Concrete (2018) WEB-DLRip [MVO] торрент скачать бесплатно


    Закатать в асфальт / Dragged Across Concrete (2018) WEB-DLRip [MVO] торрент скачать бесплатно

    Дата: 13-04-2019, 05:00 | .torrent скачали: 1

    Закатать в асфальт / Dragged Across Concrete (2018) WEB-DLRip [MVO]Производство: Канада, США/Unified Pictures, Assemble Media, Cinestate
    Жанр: Боевик, триллер, драма, криминал
    Режиссер: С. Крэйг Залер

    Актеры
    Мэл Гибсон, Винс Вон, Тори Киттлз, Дженнифер Карпентер, Майкл Джей Уайт, Лори Холден, Дон Джонсон, Томас Кречманн, Удо Кир, Лианнет Боррего

    Описание

    Старого ищейку Риджмана и безбашенного Энтони отстраняют от дел после того, как в сеть попадает видео, где напарники жестко выбивают признание из подозреваемого. Не имея других средств к существованию, экс-копы находят работу в криминальном подполье.

    Возраст: 18+ (зрителям, достигшим 18 лет. запрещено для детей)
    Рейтинг MPAA: R (лицам до 17 лет обязательно присутствие взрослого)
    Дата мировой премьеры: 3 сентября 2018
    Дата премьеры в России: 21 марта 2019

    Продолжительность: 02: 38: 30
    Качество видео: WEB-DLRip
    Перевод: Многоголосый закадровый, профессиональный (HDRezka studio)
    Субтитры: Русские (full, отдельно)
    Видео: XviD, 720x304, ~1577 Kbps
    Аудио #1: AC3, 2 ch, 192 Kbps - Русский
    Аудио #2: AC3, 2 ch, 192 Kbps - Английский
    Общее
    Полное имя : D: NNMЗакатать в асфальтDragged Across Concrete 2018 AMZN WEB-DLRipDragged Across Concrete 2018 AMZN WEB-DLRip.avi
    Формат : AVI
    Формат/Информация : Audio Video Interleave
    Профиль формата : OpenDML
    Размер файла : 2, 19 Гбайт
    Продолжительность : 2 ч. 38 м.
    Общий поток : 1979 Кбит/сек
    Программа кодирования : VirtualDubMod 1.5.10.3 |www.virtualdub-fr.org|| (build 2550/release)
    Библиотека кодирования : VirtualDubMod build 2550/release
    Видео
    Идентификатор : 0
    Формат : MPEG-4 Visual
    Профиль формата : Advanced Simple@L5
    Настройки формата : BVOP1/Custom Matrix
    Параметр BVOP формата : 1
    Параметр QPel формата : Нет
    Параметр GMC формата : Без точки перехода
    Параметр матрицы формата : Выборочная
    Идентификатор кодека : XVID
    Идентификатор кодека/Подсказка : XviD
    Продолжительность : 2 ч. 38 м.
    Битрейт : 1577 Кбит/сек
    Ширина : 720 пикселей
    Высота : 304 пикселя
    Соотношение сторон : 2, 35: 1
    Частота кадров : 23, 976 (24000/1001) кадра/сек
    Цветовое пространство : YUV
    Субдискретизация насыщенности : 4: 2: 0
    Битовая глубина : 8 бит
    Тип развёртки : Прогрессивная
    Метод сжатия : С потерями
    Бит/(Пиксели*Кадры) : 0.300
    Размер потока : 1, 75 Гбайт (80%)
    Библиотека кодирования : XviD 73
    Аудио #1
    Идентификатор : 1
    Формат : AC-3
    Формат/Информация : Audio Coding 3
    Коммерческое название : Dolby Digital
    Идентификатор кодека : 2000
    Продолжительность : 2 ч. 38 м.
    Вид битрейта : Постоянный
    Битрейт : 192 Кбит/сек
    Каналы : 2 канала
    Channel layout : L R
    Частота : 48, 0 КГц
    Частота кадров : 31, 250 кадров/сек (1536 SPF)
    Битовая глубина : 16 бит
    Метод сжатия : С потерями
    Размер потока : 218 Мбайт (10%)
    Выравнивание : Разделение по промежуткам
    Продолжительность промежутка : 42 мс. (1, 00 видеокадр)
    Время предзагрузки промежутка : 500 мс.
    ServiceKind/String : Complete Main
    Аудио #2
    Идентификатор : 2
    Формат : AC-3
    Формат/Информация : Audio Coding 3
    Коммерческое название : Dolby Digital
    Идентификатор кодека : 2000
    Продолжительность : 2 ч. 38 м.
    Вид битрейта : Постоянный
    Битрейт : 192 Кбит/сек
    Каналы : 2 канала
    Channel layout : L R
    Частота : 48, 0 КГц
    Частота кадров : 31, 250 кадров/сек (1536 SPF)
    Битовая глубина : 16 бит
    Метод сжатия : С потерями
    Размер потока : 218 Мбайт (10%)
    Выравнивание : Разделение по промежуткам
    Продолжительность промежутка : 42 мс. (1, 00 видеокадр)
    Время предзагрузки промежутка : 500 мс.
    ServiceKind/String : Complete Main

    Скриншоты для ознакомления



    Все одноименные релизы в Клубе Время раздачи: 24/7 (до появления первых 3-5 скачавших)

    Онлайн видео Закатать в асфальт



    Закатать в асфальт/Dragged Across Concrete (2018) WEB-DLRip [MVO]
    Рейтинг →
     (голосов: 1, оценка 4/5, голосовать можно 1 раз )

    Другие торренты по теме:

  • Закатать в асфальт / Dragged Across Concrete (2018) WEBRip [H.264 / 720p-LQ] [MVO]
  • Закатать в асфальт / Dragged Across Concrete (2018) WEB-DL [H.264 / 1080p-LQ] [MVO]
  • Закатать в асфальт / Dragged Across Concrete (2018) WEBRip [H.264 / 1080p] [MVO]
  • Закатать в асфальт / Dragged Across Concrete (2018) WEB-DLRip [MVO] [AD]
  • Закатать в асфальт / Dragged Across Concrete (2018) WEB-DLRip [H.264 / 1080p-LQ] [MVO] [AD]
  • Закатать в асфальт / Dragged Across Concrete (2018) BDRip [H.264 / 1080p] [MVO]
  • Закатать в асфальт / Dragged Across Concrete (2018) BDRip [H.264 / 720p]
  • Закатать в асфальт / Dragged Across Concrete (2018) BDRip [H.264 / 1080p-LQ]


    • Комментарии (0):

      Информация

      Информация

        Посетители, находящиеся в группе Гости, не могут оставлять комментарии в данной новости.

        ↓ Меню




        ↓ Опрос

        Вы добавили сайт в закладки?
        Да
        Нет


        Популярное