.
Авторизация | Регистрация
bitok.xyz
» » Закатать в асфальт / Dragged Across Concrete (2018) WEBRip [H.264 / 720p-LQ] [MVO] торрент скачать бесплатно


    Закатать в асфальт / Dragged Across Concrete (2018) WEBRip [H.264 / 720p-LQ] [MVO] торрент скачать бесплатно

    Дата: 14-04-2019, 05:00 | .torrent скачали: 2

    Закатать в асфальт / Dragged Across Concrete (2018) WEBRip [H.264 / 720p-LQ] [MVO]Производство: Канада, США/Unified Pictures, Assemble Media, Cinestate
    Жанр: Боевик, Триллер, Драма, Криминал
    Режиссер: С. Крэйг Залер

    Актеры
    Мэл Гибсон, Винс Вон, Дженнифер Карпентер, Майкл Джей Уайт, Лори Холден, Дон Джонсон, Томас Кречманн, Удо Кир, Лианнет Боррего, Джастин Уоррингтон

    Описание

    Два бравых копа, пожилой Брэтт и молодой болтливый Энтони, при задержании очередного латиноса-наркоторговца слегка превышают полномочия. Дело, в общем, для них привычное, но в этот раз какой-то излишне любопытный сосед заснял их действия на камеру телефона. Начальник им сочувствует, но все равно временно отстраняет от службы — делать нечего, такие уж времена. Брэтт, которому и так живётся непросто — больная жена (в прошлом коп) без обезболивающих на ногах стоять не может, а дочь периодически подвергается нападкам со стороны местных хулиганов, — без денег сидеть не намерен. И он, взяв до кучи напарника, решается на авантюру: ограбить богатого и очень опасного криминального дельца, как раз закатившего к ним в город.

    Возраст: 18+ (зрителям, достигшим 18 лет. запрещено для детей)
    Рейтинг MPAA: R (лицам до 17 лет обязательно присутствие взрослого)
    Дата мировой премьеры: 3 сентября 2018
    Дата российской премьеры: 21 марта 2019, Парадиз
    Релиз от: k.e.n MegaPeer
    Продолжительность: 02: 38: 30
    Качество видео: WEBRip 720p
    Перевод: Профессиональный (многоголосый, закадровый) HDRezka Studio
    Субтитры: русские, английские
    Видео: AVC/H.264, 1280x534 (2.40: 1), 23.976 fps, 3 182 kb/s
    Аудио #1: AC3, 48 kHz, 2 ch, 192 kb/s (Russian)
    Аудио #2: AC3, 48 kHz, 6 ch, 384 kb/s (English)
    Полное имя : C: Закатать в асфальт.2018 (М.Гибсон, В.Вон).mkv
    Формат : Matroska
    Версия формата : Version 2
    Размер файла : 4, 16 Гбайт
    Продолжительность : 2 ч. 38 м.
    Общий поток : 3755 Кбит/сек
    Дата кодирования : UTC 2019-04-12 15: 11: 52
    Программа кодирования : mkvmerge v5.3.0 (\'I could have danced\') built on Feb 9 2012 10: 38: 07
    Библиотека кодирования : libebml v1.2.3 + libmatroska v1.3.0
    Обложка : Yes
    Attachments : cover (2).jpg
    Видео
    Идентификатор : 1
    Формат : AVC
    Формат/Информация : Advanced Video Codec
    Профиль формата : High@L4.1
    Параметр CABAC формата : Да
    Параметр ReFrames формата : 12 кадров
    Идентификатор кодека : V_MPEG4/ISO/AVC
    Продолжительность : 2 ч. 38 м.
    Битрейт : 3182 Кбит/сек
    Ширина : 1280 пикселей
    Высота : 534 пикселя
    Соотношение сторон : 2, 40: 1
    Режим частоты кадров : Постоянный
    Частота кадров : 23, 976 (24000/1001) кадра/сек
    Цветовое пространство : YUV
    Субдискретизация насыщенности : 4: 2: 0
    Битовая глубина : 8 бит
    Тип развёртки : Прогрессивная
    Бит/(Пиксели*Кадры) : 0.194
    Размер потока : 3, 44 Гбайт (83%)
    Библиотека кодирования : x264 core 146 r2538 121396c
    Настройки программы : cabac=1/ref=12/deblock=1: -3: -3/analyse=0x3: 0x133/me=umh/subme=11/psy=1/psy_rd=1.05: 0.10/mixed_ref=1/me_range=32/chroma_me=1/trellis=2/8x8dct=1/cqm=0/deadzone=21, 11/fast_pskip=0/chroma_qp_offset=-3/threads=12/lookahead_threads=2/sliced_threads=0/nr=0/decimate=0/interlaced=0/bluray_compat=0/constrained_intra=0/bframes=12/b_pyramid=2/b_adapt=2/b_bias=0/direct=3/weightb=1/open_gop=0/weightp=2/keyint=240/keyint_min=24/scenecut=40/intra_refresh=0/rc_lookahead=40/rc=2pass/mbtree=0/bitrate=3182/ratetol=1.0/qcomp=0.60/qpmin=0/qpmax=69/qpstep=4/cplxblur=20.0/qblur=0.5/vbv_maxrate=50000/vbv_bufsize=62500/nal_hrd=none/filler=0/ip_ratio=1.40/pb_ratio=1.30/aq=3: 0.70
    Язык : English
    Default : Да
    Forced : Нет
    Цветовой диапазон : Limited
    Основные цвета : BT.709
    Характеристики трансфера : BT.709
    Коэффициенты матрицы : BT.709
    Аудио #1
    Идентификатор : 2
    Формат : AC-3
    Формат/Информация : Audio Coding 3
    Расширение режима : CM (complete main)
    Параметр Endianness формата : Big
    Идентификатор кодека : A_AC3
    Продолжительность : 2 ч. 38 м.
    Вид битрейта : Постоянный
    Битрейт : 192 Кбит/сек
    Каналы : 2 канала
    Расположение каналов : Front: L R
    Частота : 48, 0 КГц
    Частота кадров : 31, 250 кадров/сек (1536 spf)
    Битовая глубина : 16 бит
    Метод сжатия : С потерями
    Размер потока : 218 Мбайт (5%)
    Заголовок : Многоголосый
    Язык : Russian
    Default : Да
    Forced : Да
    Аудио #2
    Идентификатор : 3
    Формат : AC-3
    Формат/Информация : Audio Coding 3
    Расширение режима : CM (complete main)
    Параметр Endianness формата : Big
    Идентификатор кодека : A_AC3
    Продолжительность : 2 ч. 38 м.
    Вид битрейта : Постоянный
    Битрейт : 384 Кбит/сек
    Каналы : 6 каналов
    Расположение каналов : Front: L C R, Side: L R, LFE
    Частота : 48, 0 КГц
    Частота кадров : 31, 250 кадров/сек (1536 spf)
    Битовая глубина : 16 бит
    Метод сжатия : С потерями
    Размер потока : 435 Мбайт (10%)
    Заголовок : Оригинал
    Язык : English
    Default : Нет
    Forced : Нет
    Текст #1
    Идентификатор : 4
    Формат : UTF-8
    Идентификатор кодека : S_TEXT/UTF8
    Идентификатор кодека/Информация : UTF-8 Plain Text
    Заголовок : full
    Язык : Russian
    Default : Нет
    Forced : Нет
    Текст #2
    Идентификатор : 5
    Формат : UTF-8
    Идентификатор кодека : S_TEXT/UTF8
    Идентификатор кодека/Информация : UTF-8 Plain Text
    Заголовок : full
    Язык : English
    Default : Нет
    Forced : Нет
    Текст #3
    Идентификатор : 6
    Формат : UTF-8
    Идентификатор кодека : S_TEXT/UTF8
    Идентификатор кодека/Информация : UTF-8 Plain Text
    Заголовок : SDH
    Язык : English
    Default : Нет
    Forced : Нет
    Здесь Вы можете оказать помощь релизеру
    Скриншоты для ознакомления



    Все одноименные релизы в Клубе Время раздачи: 24/7 (до появления первых 3-5 скачавших)

    Онлайн видео Закатать в асфальт



    Закатать в асфальт/Dragged Across Concrete (2018) WEBRip [H.264/720p-LQ] [MVO]
    Рейтинг →
     (голосов: 1, оценка 4/5, голосовать можно 1 раз )

    Другие торренты по теме:

  • Закатать в асфальт / Dragged Across Concrete (2018) WEB-DLRip [MVO]
  • Закатать в асфальт / Dragged Across Concrete (2018) WEB-DL [H.264 / 1080p-LQ] [MVO]
  • Закатать в асфальт / Dragged Across Concrete (2018) WEBRip [H.264 / 1080p] [MVO]
  • Закатать в асфальт / Dragged Across Concrete (2018) WEB-DLRip [MVO] [AD]
  • Закатать в асфальт / Dragged Across Concrete (2018) WEB-DLRip [H.264 / 1080p-LQ] [MVO] [AD]
  • Закатать в асфальт / Dragged Across Concrete (2018) BDRip [H.264 / 1080p] [MVO]
  • Закатать в асфальт / Dragged Across Concrete (2018) BDRip [H.264 / 720p]
  • Закатать в асфальт / Dragged Across Concrete (2018) BDRip [H.264 / 1080p-LQ]


    • Комментарии (0):

      Информация

      Информация

        Посетители, находящиеся в группе Гости, не могут оставлять комментарии в данной новости.

        ↓ Меню




        ↓ Опрос

        Вы добавили сайт в закладки?
        Да
        Нет


        Популярное