.
Авторизация | Регистрация

bitok.xyz

» » Мы умираем молодыми / We Die Young (2019) BDRip [MVO] торрент скачать бесплатно


    Мы умираем молодыми / We Die Young (2019) BDRip [MVO] торрент скачать бесплатно

    Дата: 14-04-2019, 05:00 | .torrent скачали: 1

    Мы умираем молодыми / We Die Young (2019) BDRip [MVO]Производство: Болгария, США/Dream Team Films Pvt. Ltd.
    Жанр: Драма
    Режиссер: Лайор Геллер

    Актеры
    Жан-Клод Ван Дамм, Гари Бидл, Керри Беннетт, Никколо Бесио, Джим Цезарь, Робин Кара, Дэвид Кастанеда, Оуэн Дэвис, Уриель Эмиль, Лаура Гиош, Мигель Харичи

    Описание

    Лукасу всего четырнадцать, а он уже является частью преступного мира огромного Вашингтона. Лукас хочет, чтобы подобная участь обошла стороной его десятилетнего братишку. Лукас хочет, чтобы жизнь его брата сложилась более удачно и он достиг больших высот.
    И такая возможность появляется у молодых людей, когда по соседству селится мужчина средних лет. Выяснилось, что он ветеран войны спецназовец, который многое повидал на своем веку. Этот мужчина берет судьбу подростков в свои сильные военные руки...

    Рейтинг MPAA: R (лицам до 17 лет обязательно присутствие взрослого)
    Дата мировой премьеры: 7 февраля 2019
    Продолжительность: 01: 32: 42
    Качество видео: BDRip
    Перевод: Многоголосый закадровый, профессиональный (HDrezka Studio)
    Субтитры: Отсутствуют
    Видео: XviD, 688x288, ~1608 Kbps
    Аудио #1: AC3, 2 ch, 192 Kbps - Русский
    Аудио #2: AC3, 6 ch, 448 Kbps - Английский
    Общее
    Полное имя : D: NNMМы умираем молодымиWe Die Young 2019 BDRip.avi
    Формат : AVI
    Формат/Информация : Audio Video Interleave
    Размер файла : 1, 46 Гбайт
    Продолжительность : 1 ч. 32 м.
    Общий поток : 2262 Кбит/сек
    Программа кодирования : VirtualDubMod 1.5.10.2 (build 2540/release)
    Библиотека кодирования : VirtualDubMod build 2540/release
    Видео
    Идентификатор : 0
    Формат : MPEG-4 Visual
    Профиль формата : Advanced Simple@L5
    Настройки формата : BVOP2
    Параметр BVOP формата : 2
    Параметр QPel формата : Нет
    Параметр GMC формата : Без точки перехода
    Параметр матрицы формата : Default (MPEG)
    Режим смешивания : Сжатый битовый поток
    Идентификатор кодека : XVID
    Идентификатор кодека/Подсказка : XviD
    Продолжительность : 1 ч. 32 м.
    Битрейт : 1608 Кбит/сек
    Ширина : 688 пикселей
    Высота : 288 пикселей
    Соотношение сторон : 2, 40: 1
    Частота кадров : 23, 976 (24000/1001) кадра/сек
    Цветовое пространство : YUV
    Субдискретизация насыщенности : 4: 2: 0
    Битовая глубина : 8 бит
    Тип развёртки : Прогрессивная
    Метод сжатия : С потерями
    Бит/(Пиксели*Кадры) : 0.338
    Размер потока : 1, 04 Гбайт (71%)
    Библиотека кодирования : XviD 1.2.1 (UTC 2008-12-04)
    Аудио #1
    Идентификатор : 1
    Формат : AC-3
    Формат/Информация : Audio Coding 3
    Коммерческое название : Dolby Digital
    Идентификатор кодека : 2000
    Продолжительность : 1 ч. 32 м.
    Вид битрейта : Постоянный
    Битрейт : 192 Кбит/сек
    Каналы : 2 канала
    Channel layout : L R
    Частота : 48, 0 КГц
    Частота кадров : 31, 250 кадров/сек (1536 SPF)
    Битовая глубина : 16 бит
    Метод сжатия : С потерями
    Размер потока : 127 Мбайт (8%)
    Выравнивание : Разделение по промежуткам
    Продолжительность промежутка : 42 мс. (1, 00 видеокадр)
    Время предзагрузки промежутка : 500 мс.
    ServiceKind/String : Complete Main
    Аудио #2
    Идентификатор : 2
    Формат : AC-3
    Формат/Информация : Audio Coding 3
    Коммерческое название : Dolby Digital
    Идентификатор кодека : 2000
    Продолжительность : 1 ч. 32 м.
    Вид битрейта : Постоянный
    Битрейт : 448 Кбит/сек
    Каналы : 6 каналов
    Channel layout : L R C LFE Ls Rs
    Частота : 48, 0 КГц
    Частота кадров : 31, 250 кадров/сек (1536 SPF)
    Битовая глубина : 16 бит
    Метод сжатия : С потерями
    Размер потока : 297 Мбайт (20%)
    Выравнивание : Разделение по промежуткам
    Продолжительность промежутка : 42 мс. (1, 00 видеокадр)
    Время предзагрузки промежутка : 500 мс.
    ServiceKind/String : Complete Main

    Скриншоты для ознакомления



    Все одноименные релизы в Клубе Время раздачи: 24/7 (до появления первых 3-5 скачавших)

    Онлайн видео Мы умираем молодыми



    Мы умираем молодыми/We Die Young (2019) BDRip [MVO]
    Рейтинг →
     (голосов: 1, оценка 5/5, голосовать можно 1 раз )

    Другие торренты по теме:

  • Мы умираем молодыми / We Die Young (2019) WEB-DLRip [MVO] [AD]
  • Мы умираем молодыми / We Die Young (2019) WEB-DLRip [H.264 / 1080p-LQ] [MVO] [AD]
  • Мы умираем молодыми / We Die Young (2019) WEB-DLRip [MVO]
  • Мы умираем молодыми / We Die Young (2019) WEB-DL [H.264 / 1080p-LQ] [MVO]
  • Мы умираем молодыми / We Die Young (2019) WEB-DL [1080p] ATV (MVO)
  • Мы умираем молодыми / We Die Young (2019) BDRip [H.264 / 1080p-LQ] [MVO] [hand made]


    • Комментарии (0):

      Информация

      Информация

        Посетители, находящиеся в группе Гости, не могут оставлять комментарии в данной новости.

        ↓ Меню




        ↓ Опрос

        Вы добавили сайт в закладки?
        Да
        Нет


        Популярное