.
Авторизация | Регистрация

bitok.xyz

» » Закатать в асфальт / Dragged Across Concrete (2018) WEBRip [H.264 / 1080p] [MVO] торрент скачать бесплатно


    Закатать в асфальт / Dragged Across Concrete (2018) WEBRip [H.264 / 1080p] [MVO] торрент скачать бесплатно

    Дата: 14-04-2019, 05:00 | .torrent скачали: 0

    Закатать в асфальт / Dragged Across Concrete (2018) WEBRip [H.264 / 1080p] [MVO]Производство: Канада, США/Unified Pictures, Assemble Media, Cinestate
    Жанр: Боевик, триллер, драма, криминал
    Режиссер: С. Крэйг Залер

    Актеры
    Мэл Гибсон, Винс Вон, Тори Киттлз, Дженнифер Карпентер, Майкл Джей Уайт, Лори Холден, Дон Джонсон, Томас Кречманн, Удо Кир, Лианнет Боррего

    Описание

    Старого ищейку Риджмана и безбашенного Энтони отстраняют от дел после того, как в сеть попадает видео, где напарники жестко выбивают признание из подозреваемого. Не имея других средств к существованию, экс-копы находят работу в криминальном подполье.

    Возраст: 18+ (зрителям, достигшим 18 лет. запрещено для детей)
    Рейтинг MPAA: R (лицам до 17 лет обязательно присутствие взрослого)
    Дата мировой премьеры: 3 сентября 2018
    Дата премьеры в России: 21 марта 2019

    Продолжительность: 02: 38: 30
    Качество видео: WEBRip (1080p)
    Перевод: Многоголосый закадровый, профессиональный (HDRezka studio)
    Субтитры: Русские (full), английские (full, SDH)
    Видео: AVC/H.264, 1920x800, ~10000 Kbps
    Аудио #1: AC3, 2 ch, 192 Kbps - Русский
    Аудио #2: AC3, 6 ch, 384 Kbps - Английский
    Общее
    Уникальный идентификатор : 216305654926853711178905040841244705291 (0xA2BAF42C0016AE73B7142C437084820B)
    Полное имя : D: NNMЗакатать в асфальтDragged Across Concrete 2018 WEBRip 1080p.mkv
    Формат : Matroska
    Версия формата : Version 4
    Размер файла : 11, 7 Гбайт
    Продолжительность : 2 ч. 38 м.
    Общий поток : 10, 6 Мбит/сек
    Дата кодирования : UTC 2019-04-12 18: 50: 44
    Программа кодирования : mkvmerge v7.1.0 (\'Good Love\') 64bit built on Jul 27 2014 13: 06: 55
    Библиотека кодирования : libebml v1.3.0 + libmatroska v1.4.1
    Видео
    Идентификатор : 1
    Формат : AVC
    Формат/Информация : Advanced Video Codec
    Профиль формата : High@L4.1
    Настройки формата : CABAC/5 Ref Frames
    Параметр CABAC формата : Да
    Параметр RefFrames формата : 5 кадров
    Идентификатор кодека : V_MPEG4/ISO/AVC
    Продолжительность : 2 ч. 38 м.
    Битрейт : 10000 Кбит/сек
    Ширина : 1920 пикселей
    Высота : 800 пикселей
    Соотношение сторон : 2, 40: 1
    Режим частоты кадров : Постоянный
    Частота кадров : 23, 976 (24000/1001) кадра/сек
    Цветовое пространство : YUV
    Субдискретизация насыщенности : 4: 2: 0
    Битовая глубина : 8 бит
    Тип развёртки : Прогрессивная
    Бит/(Пиксели*Кадры) : 0.272
    Размер потока : 11, 1 Гбайт (95%)
    Библиотека кодирования : x264 core 157 r2935 545de2f
    Настройки программы : cabac=1/ref=5/deblock=1: -1: -1/analyse=0x3: 0x133/me=umh/subme=10/psy=1/psy_rd=1.00: 0.15/mixed_ref=1/me_range=48/chroma_me=1/trellis=2/8x8dct=1/cqm=0/deadzone=21, 11/fast_pskip=1/chroma_qp_offset=-3/threads=25/lookahead_threads=4/sliced_threads=0/nr=0/decimate=0/interlaced=0/bluray_compat=0/constrained_intra=0/bframes=8/b_pyramid=2/b_adapt=2/b_bias=0/direct=3/weightb=1/open_gop=0/weightp=2/keyint=250/keyint_min=23/scenecut=40/intra_refresh=0/rc_lookahead=60/rc=2pass/mbtree=1/bitrate=10000/ratetol=1.0/qcomp=0.60/qpmin=0/qpmax=69/qpstep=4/cplxblur=20.0/qblur=0.5/ip_ratio=1.40/aq=1: 1.00
    Язык : English
    Default : Да
    Forced : Нет
    Аудио #1
    Идентификатор : 2
    Формат : AC-3
    Формат/Информация : Audio Coding 3
    Коммерческое название : Dolby Digital
    Идентификатор кодека : A_AC3
    Продолжительность : 2 ч. 38 м.
    Вид битрейта : Постоянный
    Битрейт : 192 Кбит/сек
    Каналы : 2 канала
    Channel layout : L R
    Частота : 48, 0 КГц
    Частота кадров : 31, 250 кадров/сек (1536 SPF)
    Битовая глубина : 16 бит
    Метод сжатия : С потерями
    Размер потока : 218 Мбайт (2%)
    Заголовок : MVO | HDRezka Studio
    Язык : Russian
    ServiceKind/String : Complete Main
    Default : Да
    Forced : Нет
    Аудио #2
    Идентификатор : 3
    Формат : E-AC-3
    Формат/Информация : Enhanced AC-3
    Коммерческое название : Dolby Digital Plus
    Идентификатор кодека : A_EAC3
    Продолжительность : 2 ч. 38 м.
    Вид битрейта : Постоянный
    Битрейт : 384 Кбит/сек
    Каналы : 6 каналов
    Channel layout : L R C LFE Ls Rs
    Частота : 48, 0 КГц
    Частота кадров : 31, 250 кадров/сек (1536 SPF)
    Метод сжатия : С потерями
    Размер потока : 435 Мбайт (4%)
    Язык : English
    ServiceKind/String : Complete Main
    Default : Нет
    Forced : Нет
    Текст #1
    Идентификатор : 4
    Формат : UTF-8
    Идентификатор кодека : S_TEXT/UTF8
    Идентификатор кодека/Информация : UTF-8 Plain Text
    Продолжительность : 2 ч. 28 м.
    Битрейт : 72 бит/сек
    ElementCount : 1616
    Размер потока : 78, 6 Кбайт (0%)
    Язык : Russian
    Default : Нет
    Forced : Нет
    Текст #2
    Идентификатор : 5
    Формат : UTF-8
    Идентификатор кодека : S_TEXT/UTF8
    Идентификатор кодека/Информация : UTF-8 Plain Text
    Продолжительность : 2 ч. 28 м.
    Битрейт : 45 бит/сек
    ElementCount : 1610
    Размер потока : 49, 0 Кбайт (0%)
    Язык : English
    Default : Нет
    Forced : Нет
    Текст #3
    Идентификатор : 6
    Формат : UTF-8
    Идентификатор кодека : S_TEXT/UTF8
    Идентификатор кодека/Информация : UTF-8 Plain Text
    Продолжительность : 2 ч. 28 м.
    Битрейт : 47 бит/сек
    ElementCount : 1677
    Размер потока : 51, 3 Кбайт (0%)
    Заголовок : SDH
    Язык : English
    Default : Нет
    Forced : Нет
    Меню
    00: 00: 00.000 : en: 1
    00: 01: 14.000 : en: 2
    00: 09: 33.000 : en: 3
    00: 19: 31.000 : en: 4
    00: 27: 23.000 : en: 5
    00: 35: 26.000 : en: 6
    00: 43: 14.000 : en: 7
    00: 55: 02.000 : en: 8
    01: 03: 27.000 : en: 9
    01: 15: 12.000 : en: 10
    01: 24: 13.000 : en: 11
    01: 35: 00.000 : en: 12
    01: 43: 35.000 : en: 13
    01: 52: 50.000 : en: 14
    02: 01: 43.000 : en: 15
    02: 14: 08.000 : en: 16
    02: 25: 41.000 : en: 17
    02: 33: 33.000 : en: 18

    Скриншоты для ознакомления



    Все одноименные релизы в Клубе Время раздачи: 24/7 (до появления первых 3-5 скачавших)

    Онлайн видео Закатать в асфальт



    Закатать в асфальт/Dragged Across Concrete (2018) WEBRip [H.264/1080p] [MVO]
    Рейтинг →
     (голосов: 1, оценка 5/5, голосовать можно 1 раз )

    Другие торренты по теме:

  • Закатать в асфальт / Dragged Across Concrete (2018) WEB-DLRip [MVO]
  • Закатать в асфальт / Dragged Across Concrete (2018) WEBRip [H.264 / 720p-LQ] [MVO]
  • Закатать в асфальт / Dragged Across Concrete (2018) WEB-DL [H.264 / 1080p-LQ] [MVO]
  • Закатать в асфальт / Dragged Across Concrete (2018) WEB-DLRip [MVO] [AD]
  • Закатать в асфальт / Dragged Across Concrete (2018) WEB-DLRip [H.264 / 1080p-LQ] [MVO] [AD]
  • Закатать в асфальт / Dragged Across Concrete (2018) BDRip [H.264 / 1080p] [MVO]
  • Закатать в асфальт / Dragged Across Concrete (2018) BDRip [H.264 / 720p]
  • Закатать в асфальт / Dragged Across Concrete (2018) BDRip [H.264 / 1080p-LQ]


    • Комментарии (0):

      Информация

      Информация

        Посетители, находящиеся в группе Гости, не могут оставлять комментарии в данной новости.

        ↓ Меню




        ↓ Опрос

        Вы добавили сайт в закладки?
        Да
        Нет


        Популярное