.
Авторизация | Регистрация

bitok.xyz

» » Мстители: Финал / Avengers: Endgame (2019) TC [EN / RU Sub] [Proper] торрент скачать бесплатно


    Мстители: Финал / Avengers: Endgame (2019) TC [EN / RU Sub] [Proper] торрент скачать бесплатно

    Дата: 17-05-2019, 05:00 | .torrent скачали: 3

    Мстители: Финал / Avengers: Endgame (2019) TC [EN / RU Sub] [Proper]Производство: США/Marvel Studios Inc., Weta Digital, Legacy Effects
    Жанр: Фантастика, Фэнтези, Боевик, Приключения
    Режиссер: Энтони Руссо, Джо Руссо

    Актеры
    Роберт Дауни мл. Крис Эванс, Марк Руффало, Крис Хемсворт, Скарлетт Йоханссон, Джереми Реннер, Дон Чидл, Пол Радд, Чедвик Боузман, Бри Ларсон

    Описание

    Оставшиеся в живых члены команды Мстителей и их союзники должны разработать новый план, который поможет противостоять разрушительным действиям могущественного титана Таноса. После наиболее масштабной и трагической битвы в истории они не могут допустить ошибку.

    Возраст: 16+ (зрителям, достигшим 16 лет)
    Рейтинг MPAA: PG-13 (детям до 13 лет просмотр нежелателен)
    Дата мировой премьеры: 24 апреля 2019
    Дата российской премьеры: 29 апреля 2019, WDSSPR
    Продолжительность: 02: 58: 33
    Качество видео: TC
    Перевод: Отсутствует
    Язык озвучки : Английский
    Субтитры: Китайские (вшитые/скрытые), русские (вшитые)
    Видео: Xvid, 720x288, ~1557 kbps
    Аудио: AC3, 2 ch, 192 Kbps | LineGeneral
    Complete name : Avengers Endgame.2019.TC.Proper.Eng.Rus SUB.avi
    Format : AVI
    Format/Info : Audio Video Interleave
    Format profile : OpenDML
    File size : 2.19 GiB
    Duration : 2 h 58 min
    Overall bit rate : 1 759 kb/s
    Video
    ID : 0
    Format : MPEG-4 Visual
    Format profile : Advanced Simple@L4
    Format settings : BVOP2
    Format settings, BVOP : 2
    Format settings, QPel : No
    Format settings, GMC : No warppoints
    Format settings, Matrix : Default (H.263)
    Codec ID : XVID
    Codec ID/Hint : XviD
    Duration : 2 h 58 min
    Bit rate : 1 557 kb/s
    Width : 720 pixels
    Height : 288 pixels
    Display aspect ratio : 2.500
    Frame rate : 24.000 FPS
    Color space : YUV
    Chroma subsampling : 4: 2: 0
    Bit depth : 8 bits
    Scan type : Progressive
    Compression mode : Lossy
    Bits/(Pixel*Frame) : 0.313
    Stream size : 1.94 GiB (89%)
    Writing library : XviD 67
    Audio
    ID : 1
    Format : AC-3
    Format/Info : Audio Coding 3
    Commercial name : Dolby Digital
    Codec ID : 2000
    Duration : 2 h 58 min
    Bit rate mode : Constant
    Bit rate : 192 kb/s
    Channel(s) : 2 channels
    Channel layout : L R
    Sampling rate : 44.1 kHz
    Frame rate : 28.711 FPS (1536 SPF)
    Bit depth : 16 bits
    Compression mode : Lossy
    Stream size : 245 MiB (11%)
    Alignment : Aligned on interleaves
    Interleave, duration : 35 ms (0.84 video frame)
    Скриншоты для ознакомления


    Все одноименные релизы в Клубе
    Время раздачи: 24/7 (круглосуточно) (до появления первых 3-5 скачавших)

    Онлайн видео Мстители: Финал



    Мстители: Финал/Avengers: Endgame (2019) TC [EN/RU Sub] [Proper]
    Рейтинг →
     (голосов: 1, оценка 4/5, голосовать можно 1 раз )

    Другие торренты по теме:

  • Мстители: Финал / Avengers: Endgame (2019) WEBRip [H.264 / 2160p] [4K] [IMAX Edition] [Тизер] [EN]
  • Мстители: Финал / Avengers: Endgame (2019) WEBRip [H.264 / 2160p] [4K] [Трейлер №2] [EN]
  • Alan Silvestri - Avengers: Endgame / Мстители: Финал (Original Motion Picture Soundtrack) (2019) [MP3|320 кб / с]<Soundtrack>
  • Alan Silvestri - Avengers: Endgame / Мстители: Финал (Original Motion Picture Soundtrack) (2019) [FLAC|Lossless|WEB-DL|tracks]<Soundtrack>
  • Мстители: Финал / Avengers: Endgame (2019) TS [H.264 / 720p-LQ] [MVO] [AD]
  • Мстители: Финал / Avengers: Endgame (2019) TC [Line]
  • Мстители: Финал / Avengers: Endgame (2019) TC [H.264 / 720p-LQ] [Line]
  • Мстители: Финал / Avengers: Endgame (2019) WEB-DLRip [H.264 / 1080p-LQ] [IMAX, Line, AD]


    • Комментарии (0):

      Информация

      Информация

        Посетители, находящиеся в группе Гости, не могут оставлять комментарии в данной новости.

        ↓ Меню




        ↓ Опрос

        Вы добавили сайт в закладки?
        Да
        Нет


        Популярное