.
Авторизация | Регистрация
bitok.xyz
Торрент скачать бесплатно Фильмы торрент скачать Полицейский с Рублёвки. Новогодний беспредел (2018) WEB-DL [H.264 / 1080p-LQ] торрент скачать бесплатно


    Полицейский с Рублёвки. Новогодний беспредел (2018) WEB-DL [H.264 / 1080p-LQ] торрент скачать бесплатно

    Дата: 17-05-2019, 05:00 | .torrent скачали: 139

    Полицейский с Рублёвки. Новогодний беспредел (2018) WEB-DL [H.264 / 1080p-LQ]Производство: Россия, LEGIO FELIX, ТНТ
    Жанр: Комедия
    Режиссер: Илья Куликов
    Продюсер: Андрей Семенов, Евгений Никишов, Валерий Федорович

    Актеры
    Александр Петров, Сергей Бурунов, Александра Бортич, Роман Попов, Татьяна Бабенкова, София Каштанова, Рина Гришина, Ирина Вилкова, Никита Легостев, Александр Буянов

    Описание

    В канун нового года отделение полиции Барвиха Северное оказывается под угрозой закрытия. Чтобы спасти родной отдел, полицейский с Рублевки Гриша Измайлов вынужден пойти на крайние меры и вместе с оперативниками решает ограбить банк. Он рассчитывает на то, что его коллеги вместе с начальником отдела — Яковлевым легко раскроют это дело, деньги вернут обратно, и все сохранят работу в следующем году. Но все идет не так, как задумал Гриша.

    Возраст: 16+ (зрителям, достигшим 16 лет)
    Дата мировой премьеры: 4 января 2019
    Дата российской премьеры: 20 декабря 2018, Каропрокат
    Продолжительность: 01: 30: 02
    Качество видео: WEB-DL
    Перевод: Не требуется (русский)
    Субтитры: Отсутствуют
    Видео: AVC/H.264, 1920x1080, 5000 kbps
    Аудио: AC3, 2 ch, 192 KbpsОбщее
    Уникальный идентификатор : 195691000247619051933581335426416454529 (0x9338B739954437C086F0EF300F3B2B81)
    Полное имя : D: Полицейский.с.Рублёвки.Новогодний.беспредел.2018.WEB-DL.1080p.NNMClub.mkv
    Формат : Matroska
    Версия формата : Version 4
    Размер файла : 3, 26 Гбайт
    Продолжительность : 1 ч. 30 м.
    Режим общего битрейта : Постоянный
    Общий поток : 5178 Кбит/сек
    Дата кодирования : UTC 2019-05-04 16: 01: 15
    Программа кодирования : mkvmerge v8.3.0 (\'Over the Horizon\') 64bit
    Библиотека кодирования : libebml v1.3.1 + libmatroska v1.4.2
    Видео
    Идентификатор : 1
    Формат : AVC
    Формат/Информация : Advanced Video Codec
    Профиль формата : Baseline@L4
    Настройки формата : 4 Ref Frames
    Параметр CABAC формата : Нет
    Параметр RefFrames формата : 4 кадра
    Идентификатор кодека : V_MPEG4/ISO/AVC
    Продолжительность : 1 ч. 30 м.
    Вид битрейта : Постоянный
    Битрейт : 5000 Кбит/сек
    Ширина : 1920 пикселей
    Высота : 1080 пикселей
    Соотношение сторон : 16: 9
    Режим частоты кадров : Постоянный
    Частота кадров : 25, 000 кадров/сек
    Стандарт вещания : PAL
    Цветовое пространство : YUV
    Субдискретизация насыщенности : 4: 2: 0
    Битовая глубина : 8 бит
    Тип развёртки : Прогрессивная
    Бит/(Пиксели*Кадры) : 0.096
    Размер потока : 3, 13 Гбайт (96%)
    Язык : Russian
    Default : Да
    Forced : Нет
    Цветовой диапазон : Limited
    Основные цвета : BT.709
    Характеристики трансфера : BT.709
    Коэффициенты матрицы : BT.709
    Аудио
    Идентификатор : 2
    Формат : AC-3
    Формат/Информация : Audio Coding 3
    Коммерческое название : Dolby Digital
    Идентификатор кодека : A_AC3
    Продолжительность : 1 ч. 30 м.
    Вид битрейта : Постоянный
    Битрейт : 192 Кбит/сек
    Каналы : 2 канала
    ChannelLayout : L R
    Частота : 48, 0 КГц
    Частота кадров : 31, 250 кадров/сек (1536 SPF)
    Битовая глубина : 16 бит
    Метод сжатия : С потерями
    Размер потока : 124 Мбайт (4%)
    Язык : Russian
    ServiceKind/String : Complete Main
    Default : Да
    Forced : Нет

    Скриншоты для ознакомления



    Все одноименные релизы в Клубе
    Время раздачи: 24/7 (круглосуточно) (до появления первых 3-5 скачавших)

    Онлайн видео Полицейский с Рублёвки. Новогодний беспредел (2018) WEB-DL [H.264


    Полицейский с Рублёвки. Новогодний беспредел (2018) WEB-DL [H.264 / 1080p-LQ] торрент скачать бесплатно
    Рейтинг →
     (голосов: 1, оценка 5/5, голосовать можно 1 раз )

    Другие торренты по теме:

  • Полицейский с Рублёвки (2016) SATRip (серии 1 из 8) (обновляемая)
  • Полицейский с Рублёвки (2016) DVB [H.264] (серии 1-4 из 8) (обновляемая)
  • Полицейский с Рублёвки (2016) DVB (серии 1-8 из 8)
  • Полицейский с Рублёвки (2016) WEB-DL [H.264 / 720p-LQ] (Серии 1-8 из 8)
  • Полицейский с Рублёвки в Бескудниково (2017) SATRip [H.264] (сезон 2, серии 1 из 8 ) (обновляемая)
  • Полицейский с Рублёвки в Бескудниково (2017) SATRip (сезон 2, серии 1 из 8) (обновляемая)
  • Полицейский с Рублёвки в Бескудниково (2017) HDTVRip (сезон 1, серии 1 из 8) (обновляемая)
  • Полицейский с Рублёвки в Бескудниково (2017) HDTVRip [H.264 / 720p-LQ] (сезон 2, серии 1 из 8) (обновляемая)


    • Комментарии (0):

      Информация

      Информация

        Посетители, находящиеся в группе Гости, не могут оставлять комментарии в данной новости.

        ↓ Меню




        ↓ Опрос

        Вы добавили сайт в закладки?
        Да
        Нет


        Популярное