.
Авторизация | Регистрация
bitok.xyz
» » Победители (2017) WEBRip (сезон 1, серии 1-10 из 10) торрент скачать бесплатно


    Победители (2017) WEBRip (сезон 1, серии 1-10 из 10) торрент скачать бесплатно

    Дата: 19-05-2019, 05:00 | .torrent скачали: 9

    Победители (2017) WEBRip (сезон 1, серии 1-10 из 10)Производство: Россия/ПЦ Космос фильм по заказу АО Телекомпания НТВ
    Жанр: детектив, драма, исторический фильм
    Режиссер: Александр Галин, Ангелина Никонова

    Актеры
    Никита Панфилов, Анна Чиповская, Юлия Пересильд, Никита Ефремов, Алексей Павлов, Валентин Самохин, Тимур Бадалбейли, Татьяна Тимакова, Илья Ждаников, Виталина Гусак и др.

    Описание

    1895 год. На всю Россию гремит имя знаменитого столичного адвоката Николая Андронова, не проигравшего пока ни одного судебного процесса. Его друзья Виктор Роскевич и Михаил Заварзин — тоже блестящие адвокаты. Они побеждают в сложнейших уголовных делах, порой не только оправдывая своих подзащитных, но и изобличая истинных преступников прямо в зале суда.. .

    Возраст: 16+ (зрителям, достигшим 16 лет)
    Продолжительность: ~00: 48: 00 серия
    Качество видео: WEBRip
    Видео: Xvid, 720x400 (16: 9), ~1105 kbps
    Аудио: AC3, 2 ch, 192 kbps
    General
    Complete name : D: Мои фильмыPobediteli_S1_1-10iz10_2017_XviD_WEBRipPobediteli_S1_01.avi
    Format : AVI
    Format/Info : Audio Video Interleave
    File size : 445 MiB
    Duration : 47 min 36 s
    Overall bit rate : 1 307 kb/s
    Writing application : VirtualDubMod 1.5.10.3 |www.virtualdub-fr.org|| (build 2550/release)
    Writing library : VirtualDub2 build 41867/release
    Video
    ID : 0
    Format : MPEG-4 Visual
    Format profile : Advanced Simple@L5
    Format settings : BVOP2
    Format settings, BVOP : 2
    Format settings, QPel : No
    Format settings, GMC : No warppoints
    Format settings, Matrix : Default (H.263)
    Codec ID : XVID
    Codec ID/Hint : XviD
    Duration : 47 min 36 s
    Bit rate : 1 105 kb/s
    Width : 720 pixels
    Height : 400 pixels
    Display aspect ratio : 16: 9
    Frame rate : 25.000 FPS
    Color space : YUV
    Chroma subsampling : 4: 2: 0
    Bit depth : 8 bits
    Scan type : Progressive
    Compression mode : Lossy
    Bits/(Pixel*Frame) : 0.153
    Stream size : 376 MiB (85%)
    Writing library : XviD 67
    Audio
    ID : 1
    Format : AC-3
    Format/Info : Audio Coding 3
    Commercial name : Dolby Digital
    Codec ID : 2000
    Duration : 47 min 36 s
    Bit rate mode : Constant
    Bit rate : 192 kb/s
    Channel(s) : 2 channels
    Channel layout : L R
    Sampling rate : 48.0 kHz
    Frame rate : 31.250 FPS (1536 SPF)
    Bit depth : 16 bits
    Compression mode : Lossy
    Stream size : 65.4 MiB (15%)
    Alignment : Split accross interleaves
    Interleave, duration : 40 ms (1.00 video frame)
    Interleave, preload duration : 500 ms
    Service kind : Complete Main

    Скриншоты для ознакомления



    Все одноименные релизы в Клубе
    Время раздачи: с 07: 00 до 23: 00 (до появления первых 3-5 скачавших)

    Онлайн видео Победители (2017) WEBRip (сезон любимого сериала 1, серии 1



    Победители (2017) WEBRip (сезон 1, серии 1-10 из 10)
    Рейтинг →
     (голосов: 1, оценка 5/5, голосовать можно 1 раз )

    Другие торренты по теме:

  • Семен Малков | Победители и побежденные (2016) [MP3]
  • ПОБЕДИТЕЛИ - Солдаты Великой Войны (2005-2015) [unpacked]
  • Монах Симеон Афонский | Рабы ума и победители смерти (2013) [PDF, DJVU]
  • Елена Чудинова | Победители 1984 (2016) [MP3]
  • Григорий Адамов | Тайна двух океанов. Победители недр (2017) [FB2]
  • Победители шоу / Best in Show (2000) HDTVRip [H.264 / 720p-LQ]
  • Ашот Шайбон | Победители тьмы (2013) [FB2]
  • Джонатан Страуд | Победители чудовищ (2019) [MP3]


    • Комментарии (0):

      Информация

      Информация

        Посетители, находящиеся в группе Гости, не могут оставлять комментарии в данной новости.

        ↓ Меню




        ↓ Опрос

        Вы добавили сайт в закладки?
        Да
        Нет


        Популярное