.
Авторизация | Регистрация

bitok.xyz

» » Капитан Марвел / Captain Marvel (2019) WEB-DLRip [H.264 / 1080p-LQ] [AD] торрент скачать бесплатно


    Капитан Марвел / Captain Marvel (2019) WEB-DLRip [H.264 / 1080p-LQ] [AD] торрент скачать бесплатно

    Дата: 28-05-2019, 05:00 | .torrent скачали: 2

    Капитан Марвел / Captain Marvel (2019) WEB-DLRip [H.264 / 1080p-LQ] [AD]Производство: США, Marvel Studios Inc.
    Жанр: Фантастика, Боевик, Приключения
    Режиссер: Анна Боден, Райан Флек
    Продюсер: Кевин Файги, Виктория Алонсо, Луис Д’Эспозито

    Актеры
    Бри Ларсон, Сэмюэл Л. Джексон, Бен Мендельсон, Джуд Лоу, Аннетт Бенинг, Лашана Линч, Кларк Грегг, Рюн Темт, Джемма Чан, Альхенис Перес Сото

    Описание

    После столкновения с враждующими инопланетными расами пилот военно-воздушных сил Кэрол Дэнверс обретает суперсилу и становится неуязвимой. Героине предстоит совладать со своими новыми способностями, чтобы противостоять могущественному врагу.

    Возраст: 16+ (зрителям, достигшим 16 лет)
    Рейтинг MPAA: PG-13 (детям до 13 лет просмотр нежелателен)
    Дата мировой премьеры: 27 февраля 2019
    Дата российской премьеры: 7 марта 2019, WDSSPR

    Продолжительность: 02: 04: 25
    Качество видео: WEB-DLRip
    Перевод: Дублированный (Чистый звук)
    Субтитры: Отсутствуют
    Реклама: Присутствуют вставки рекламы
    Видео: AVC/H.264, 1920x804 (2.40: 1), 6204 kbps, 23.976 fps
    Аудио: АС3, 2 ch, 48 kHz, 384 Kbps | РусскийОбщее
    Уникальный идентификатор : 223856141869830888933045268354887574705 (0xA8691FEB6F7C2E41933C32064517E4B1)
    Полное имя : D: Капитан.Марвел.2019.WEB-DLRip.1080p.NNMClub.mkv
    Формат : Matroska
    Версия формата : Version 2
    Размер файла : 5, 73 Гбайт
    Продолжительность : 2 ч. 4 м.
    Режим общего битрейта : Переменный
    Общий поток : 6590 Кбит/сек
    Дата кодирования : UTC 2019-05-27 17: 12: 47
    Программа кодирования : mkvmerge v8.3.0 (\'Over the Horizon\') 64bit
    Библиотека кодирования : libebml v1.3.1 + libmatroska v1.4.2
    Видео
    Идентификатор : 1
    Формат : AVC
    Формат/Информация : Advanced Video Codec
    Профиль формата : High@L4.1
    Настройки формата : CABAC/4 Ref Frames
    Параметр CABAC формата : Да
    Параметр RefFrames формата : 4 кадра
    Идентификатор кодека : V_MPEG4/ISO/AVC
    Продолжительность : 2 ч. 4 м.
    Вид битрейта : Переменный
    Битрейт : 6204 Кбит/сек
    Максимальный битрейт : 6900 Кбит/сек
    Ширина : 1920 пикселей
    Высота : 804 пикселя
    Соотношение сторон : 2, 40: 1
    Режим частоты кадров : Постоянный
    Частота кадров : 23, 976 (24000/1001) кадра/сек
    Стандарт вещания : Component
    Цветовое пространство : YUV
    Субдискретизация насыщенности : 4: 2: 0
    Битовая глубина : 8 бит
    Тип развёртки : Прогрессивная
    Бит/(Пиксели*Кадры) : 0.168
    Размер потока : 5, 39 Гбайт (94%)
    Default : Да
    Forced : Нет
    Цветовой диапазон : Limited
    Основные цвета : BT.709
    Характеристики трансфера : BT.709
    Коэффициенты матрицы : BT.709
    Аудио
    Идентификатор : 2
    Формат : AC-3
    Формат/Информация : Audio Coding 3
    Коммерческое название : Dolby Digital
    Идентификатор кодека : A_AC3
    Продолжительность : 2 ч. 4 м.
    Вид битрейта : Постоянный
    Битрейт : 384 Кбит/сек
    Каналы : 2 канала
    ChannelLayout : L R
    Частота : 48, 0 КГц
    Частота кадров : 31, 250 кадров/сек (1536 SPF)
    Битовая глубина : 16 бит
    Метод сжатия : С потерями
    Размер потока : 342 Мбайт (6%)
    ServiceKind/String : Complete Main
    Default : Да
    Forced : Нет

    Скриншоты для ознакомления



    Все одноименные релизы в Клубе
    Время раздачи: 24/7 (до появления первых 3-5 скачавших)

    Онлайн видео Капитан Марвел



    Капитан Марвел/Captain Marvel (2019) WEB-DLRip [H.264/1080p-LQ] [AD]
    Рейтинг →
     (голосов: 1, оценка 4/5, голосовать можно 1 раз )

    Другие торренты по теме:

  • Капитан Марвел / Captain Marvel (2019) WEBRip [H.264 / 2160p] [4K] [Трейлер №2] [EN]
  • Капитан Марвел / Captain Marvel (2019) TS [H.264 / 720p-LQ] [AD]
  • Капитан Марвел / Captain Marvel (2019) TC [MVO] [AD]
  • Капитан Марвел / Captain Marvel (2019) WEBRip [H.264 / 720p-LQ] [MVO]
  • Капитан Марвел / Captain Marvel (2019) WEB-DL [H.264 / 1080p-LQ] [MVO]
  • Капитан Марвел / Captain Marvel (2019) WEB-DL [H.264 / 1080p-LQ] [Line]
  • Капитан Марвел / Captain Marvel (2019) WEBRip [H.264 / 720p-LQ] [Line]
  • Капитан Марвел / Captain Marvel (2019) BDRip [H.264 / 720p] [Line]


    • Комментарии (0):

      Информация

      Информация

        Посетители, находящиеся в группе Гости, не могут оставлять комментарии в данной новости.

        ↓ Меню




        ↓ Опрос

        Вы добавили сайт в закладки?
        Да
        Нет


        Популярное