.
Авторизация | Регистрация

bitok.xyz

» » Капитан Марвел / Captain Marvel (2019) WEB-DL [H.264 / 1080p-LQ] [MVO] торрент скачать бесплатно


    Капитан Марвел / Captain Marvel (2019) WEB-DL [H.264 / 1080p-LQ] [MVO] торрент скачать бесплатно

    Дата: 29-05-2019, 05:00 | .torrent скачали: 0

    Капитан Марвел / Captain Marvel (2019) WEB-DL [H.264 / 1080p-LQ] [MVO]Производство: США, Marvel Studios Inc.
    Жанр: Фантастика, Боевик, Приключения
    Режиссер: Анна Боден, Райан Флек
    Продюсер: Кевин Файги, Виктория Алонсо, Луис Д’Эспозито

    Актеры
    Бри Ларсон, Сэмюэл Л. Джексон, Бен Мендельсон, Джуд Лоу, Аннетт Бенинг, Лашана Линч, Кларк Грегг, Рюн Темт, Джемма Чан, Альхенис Перес Сото

    Описание

    После столкновения с враждующими инопланетными расами пилот военно-воздушных сил Кэрол Дэнверс обретает суперсилу и становится неуязвимой. Героине предстоит совладать со своими новыми способностями, чтобы противостоять могущественному врагу.

    Возраст: 16+ (зрителям, достигшим 16 лет)
    Рейтинг MPAA: PG-13 (детям до 13 лет просмотр нежелателен)
    Дата мировой премьеры: 27 февраля 2019
    Дата российской премьеры: 7 марта 2019, WDSSPR

    Продолжительность: 02: 03: 40
    Качество видео: WEB-DL
    Перевод: Многоголосый любительский (Колобок)
    Субтитры: Английские (full, SDH)
    Видео: AVC/H.264, 1920x804 (2.40: 1), 4540 kbps, 23.976 fps
    Аудио: АС3, 2 ch, 48 kHz, 256 Kbps - Русский
    Аудио: АС3, 6 ch, 48 kHz, 384 Kbps - EnglishОбщее
    Уникальный идентификатор : 229118932258312097998525853873599712678 (0xAC5EB384DF7E40F18461B562CE248DA6)
    Полное имя : Captain.Marvel.2019.WEB-DL.1080p.mkv
    Формат : Matroska
    Версия формата : Version 4
    Размер файла : 4, 47 Гбайт
    Продолжительность : 2 ч. 3 м.
    Общий поток : 5170 Кбит/сек
    Дата кодирования : UTC 2019-05-27 19: 46: 33
    Программа кодирования : mkvmerge v7.1.0 (\'Good Love\') 64bit built on Jul 27 2014 13: 06: 55
    Библиотека кодирования : libebml v1.3.0 + libmatroska v1.4.1
    Видео
    Идентификатор : 1
    Формат : AVC
    Формат/Информация : Advanced Video Codec
    Профиль формата : High@L4
    Настройки формата : CABAC/5 Ref Frames
    Параметр CABAC формата : Да
    Параметр RefFrames формата : 5 кадров
    Идентификатор кодека : V_MPEG4/ISO/AVC
    Продолжительность : 2 ч. 3 м.
    Битрейт : 4540 Кбит/сек
    Ширина : 1920 пикселей
    Высота : 804 пикселя
    Соотношение сторон : 2, 40: 1
    Режим частоты кадров : Постоянный
    Частота кадров : 23, 976 кадра/сек
    Цветовое пространство : YUV
    Субдискретизация насыщенности : 4: 2: 0
    Битовая глубина : 8 бит
    Тип развёртки : Прогрессивная
    Бит/(Пиксели*Кадры) : 0.123
    Размер потока : 3, 92 Гбайт (88%)
    Язык : English
    Default : Нет
    Forced : Нет
    Цветовой диапазон : Limited
    Основные цвета : BT.709
    Характеристики трансфера : BT.709
    Коэффициенты матрицы : BT.709
    Аудио #1
    Идентификатор : 2
    Формат : AC-3
    Формат/Информация : Audio Coding 3
    Коммерческое название : Dolby Digital
    Идентификатор кодека : A_AC3
    Продолжительность : 1 ч. 57 м.
    Вид битрейта : Постоянный
    Битрейт : 256 Кбит/сек
    Каналы : 2 канала
    ChannelLayout : L R
    Частота : 48, 0 КГц
    Частота кадров : 31, 250 кадров/сек (1536 SPF)
    Битовая глубина : 16 бит
    Метод сжатия : С потерями
    Размер потока : 216 Мбайт (5%)
    Язык : Russian
    ServiceKind/String : Complete Main
    Default : Да
    Forced : Нет
    Аудио #2
    Идентификатор : 3
    Формат : AC-3
    Формат/Информация : Audio Coding 3
    Коммерческое название : Dolby Digital
    Идентификатор кодека : A_AC3
    Продолжительность : 2 ч. 3 м.
    Вид битрейта : Постоянный
    Битрейт : 384 Кбит/сек
    Каналы : 6 каналов
    ChannelLayout : L R C LFE Ls Rs
    Частота : 48, 0 КГц
    Частота кадров : 31, 250 кадров/сек (1536 SPF)
    Битовая глубина : 16 бит
    Метод сжатия : С потерями
    Размер потока : 340 Мбайт (7%)
    Язык : English
    ServiceKind/String : Complete Main
    Default : Нет
    Forced : Нет
    Текст #1
    Идентификатор : 4
    Формат : UTF-8
    Идентификатор кодека : S_TEXT/UTF8
    Идентификатор кодека/Информация : UTF-8 Plain Text
    Продолжительность : 1 ч. 53 м.
    Битрейт : 47 бит/сек
    ElementCount : 1424
    Размер потока : 39, 8 Кбайт (0%)
    Язык : English
    Default : Нет
    Forced : Нет
    Текст #2
    Идентификатор : 5
    Формат : UTF-8
    Идентификатор кодека : S_TEXT/UTF8
    Идентификатор кодека/Информация : UTF-8 Plain Text
    Продолжительность : 2 ч. 2 м.
    Битрейт : 50 бит/сек
    ElementCount : 1668
    Размер потока : 45, 1 Кбайт (0%)
    Заголовок : SDH
    Язык : English
    Default : Нет
    Forced : Нет
    Меню
    00: 00: 00.000 : en: 1
    00: 06: 51.286 : en: 2
    00: 14: 07.055 : en: 3
    00: 23: 17.438 : en: 4
    00: 29: 37.191 : en: 5
    00: 35: 06.937 : en: 6
    00: 44: 07.602 : en: 7
    00: 50: 42.663 : en: 8
    00: 56: 17.788 : en: 9
    01: 03: 01.983 : en: 10
    01: 11: 16.559 : en: 11
    01: 17: 48.324 : en: 12
    01: 27: 02.210 : en: 13
    01: 33: 21.588 : en: 14
    01: 40: 50.954 : en: 15
    01: 46: 24.245 : en: 16
    01: 52: 49.046 : en: 17

    Скриншоты для ознакомления



    Все одноименные релизы в Клубе
    Время раздачи: 24/7 (до появления первых 3-5 скачавших)

    Онлайн видео Капитан Марвел



    Капитан Марвел/Captain Marvel (2019) WEB-DL [H.264/1080p-LQ] [MVO]
    Рейтинг →
     (голосов: 1, оценка 4/5, голосовать можно 1 раз )

    Другие торренты по теме:

  • Капитан Марвел / Captain Marvel (2019) WEBRip [H.264 / 2160p] [4K] [Трейлер №2] [EN]
  • Капитан Марвел / Captain Marvel (2019) TS [H.264 / 720p-LQ] [AD]
  • Капитан Марвел / Captain Marvel (2019) TC [MVO] [AD]
  • Капитан Марвел / Captain Marvel (2019) WEB-DLRip [H.264 / 1080p-LQ] [AD]
  • Капитан Марвел / Captain Marvel (2019) WEBRip [H.264 / 720p-LQ] [MVO]
  • Капитан Марвел / Captain Marvel (2019) WEB-DL [H.264 / 1080p-LQ] [Line]
  • Капитан Марвел / Captain Marvel (2019) WEBRip [H.264 / 720p-LQ] [Line]
  • Капитан Марвел / Captain Marvel (2019) BDRip [H.264 / 720p] [Line]


    • Комментарии (0):

      Информация

      Информация

        Посетители, находящиеся в группе Гости, не могут оставлять комментарии в данной новости.

        ↓ Меню




        ↓ Опрос

        Вы добавили сайт в закладки?
        Да
        Нет


        Популярное