.
Авторизация | Регистрация

bitok.xyz

» » Йя-Хха (1986) BDRemux [H.264 / 1080i] торрент скачать бесплатно


    Йя-Хха (1986) BDRemux [H.264 / 1080i] торрент скачать бесплатно

    Дата: 2-06-2019, 05:00 | .torrent скачали: 37

    Йя-Хха (1986) BDRemux [H.264 / 1080i]Производство: СССР, ВГИК
    Жанр: Короткометражка, драма
    Режиссер: Рашид Нугманов

    Актеры
    Борис Гребенщиков, Константин Кинчев, Игорь Мосин, Майк Науменко, Виктор Цой, Георгий Гурьянов, Юрий Каспарян, Игорь Тихомиров, Валерий Песков, Святослав Задерий

    Описание

    Короткометражка Рашида Нугманова, известная тем, что в ней снялись отцы русского рока. Фильм бессюжетный, не игровой, скорее документальный, чем художественный — вольные зарисовки тех лет и тех славных мест — Камчатка, питерский рок-клуб…

    Продолжительность: 00: 35: 55
    Качество видео: BDRemux
    Субтитры: Французские (вшитые, не отключаемые)
    Видео: AVC/H.264, 1920x1080, 17.9 Mbps, 25.000 fps
    Аудио 1: DTS-HD MA, 2 ch, 1 726 Kbps - Русский
    Аудио 2: AC3, 2 ch, 640 Kbps - РусскийGeneral
    Unique ID : 212153884751045680834064201000303873723 (0x9F9B5A192242674C80A3C8E7CB1E4EBB)
    Complete name : Йя-Хха.1986.BDRemux.1080i.mkv
    Format : Matroska
    Format version : Version 4
    File size : 5.08 GiB
    Duration : 35 min 55 s
    Overall bit rate mode : Variable
    Overall bit rate : 20.2 Mb/s
    Encoded date : UTC 2019-06-01 17: 42: 34
    Writing application : mkvmerge v34.0.0 (\'Sight and Seen\') 64-bit
    Writing library : libebml v1.3.7 + libmatroska v1.5.0
    Video
    ID : 1
    Format : AVC
    Format/Info : Advanced Video Codec
    Format profile : High@L4.1
    Format settings : CABAC/4 Ref Frames
    Format settings, CABAC : Yes
    Format settings, Reference : 4 frames
    Codec ID : V_MPEG4/ISO/AVC
    Duration : 35 min 55 s
    Bit rate mode : Variable
    Bit rate : 17.9 Mb/s
    Maximum bit rate : 32.0 Mb/s
    Width : 1 920 pixels
    Height : 1 080 pixels
    Display aspect ratio : 16: 9
    Frame rate mode : Constant
    Frame rate : 25.000 FPS
    Standard : PAL
    Color space : YUV
    Chroma subsampling : 4: 2: 0
    Bit depth : 8 bits
    Scan type : MBAFF
    Bits/(Pixel*Frame) : 0.345
    Stream size : 4.48 GiB (88%)
    Language : Russian
    Default : Yes
    Forced : No
    Color range : Limited
    Color primaries : BT.709
    Transfer characteristics : BT.709
    Matrix coefficients : BT.709
    Audio #1
    ID : 2
    Format : DTS XLL
    Format/Info : Digital Theater Systems
    Commercial name : DTS-HD Master Audio
    Codec ID : A_DTS
    Duration : 35 min 54 s
    Bit rate mode : Variable
    Bit rate : 1 726 kb/s
    Channel(s) : 2 channels
    Channel layout : L R
    Sampling rate : 48.0 kHz
    Frame rate : 93.750 FPS (512 SPF)
    Bit depth : 16 bits
    Compression mode : Lossless
    Stream size : 443 MiB (9%)
    Language : Russian
    Default : No
    Forced : No
    Audio #2
    ID : 3
    Format : AC-3
    Format/Info : Audio Coding 3
    Commercial name : Dolby Digital
    Codec ID : A_AC3
    Duration : 35 min 54 s
    Bit rate mode : Constant
    Bit rate : 640 kb/s
    Channel(s) : 2 channels
    Channel layout : L R
    Sampling rate : 48.0 kHz
    Frame rate : 31.250 FPS (1536 SPF)
    Bit depth : 16 bits
    Compression mode : Lossy
    Stream size : 164 MiB (3%)
    Language : Russian
    Service kind : Complete Main
    Default : No
    Forced : No
    Menu
    00: 00: 00.000 : : Р“Рава 01
    00: 18: 18.360 : : Р“Рава 02
    00: 28: 47.600 : : Р“Рава 03


    Онлайн видео Йя-Хха (1986) BDRemux [H.264



    Йя-Хха (1986) BDRemux [H.264/1080i]
    Рейтинг →
     (голосов: 1, оценка 3/5, голосовать можно 1 раз )

    Другие торренты по теме:

  • Йя-хха (1986) DVDRip


    • Комментарии (0):

      Информация

      Информация

        Посетители, находящиеся в группе Гости, не могут оставлять комментарии в данной новости.

        ↓ Меню




        ↓ Опрос

        Вы добавили сайт в закладки?
        Да
        Нет


        Популярное