.
Авторизация | Регистрация

bitok.xyz

» » Человек-паук: Вдали от дома / Spider-Man: Far from Home (2019) CamRip [H.264 / 720p-LQ] [MVO] [AD] торрент скачать бесплатно


    Человек-паук: Вдали от дома / Spider-Man: Far from Home (2019) CamRip [H.264 / 720p-LQ] [MVO] [AD] торрент скачать бесплатно

    Дата: 4-07-2019, 05:00 | .torrent скачали: 3

    Человек-паук: Вдали от дома / Spider-Man: Far from Home (2019) CamRip [H.264 / 720p-LQ] [MVO] [AD]Производство: США/Columbia Pictures Corporation, Marvel Studios Inc., Pascal Pictures
    Жанр: фантастика, боевик, приключения
    Режиссер: Джон Уоттс
    Продюсер: Кевин Файги, Эми Паскаль, Виктория Алонсо

    Актеры
    Том Холланд, Сэмюэл Л. Джексон, Джейк Джилленхол, Мариса Томей, Джон Фавро, Зендея, Джейкоб Баталон, Тони Револори, Энгаури Райс, Реми Хай

    Описание

    Питер Паркер вместе с друзьями отправляется на летние каникулы в Европу. Однако отдохнуть приятелям вряд ли удастся — Питеру придется согласиться помочь Нику Фьюри раскрыть тайну существ, вызывающих стихийные бедствия и разрушения по всему континенту.

    Возраст: 16+ (зрителям, достигшим 16 лет)
    Рейтинг MPAA: PG-13 (детям до 13 лет просмотр нежелателен)
    Дата мировой премьеры: 26.06.2019
    Дата российской премьеры: 04.07.2019
    Релиз от: КОЛОБОК
    Продолжительность: 01: 54: 19
    Качество видео: CamRip
    Перевод: Многоголосый (Колобок)
    Субтитры: отсутствуют
    Реклама: аудио видео и текстовая реклама
    Видео: AVC/H.264, 1280x560, ~3675 kbps
    Аудио: AC3, 2 ch, 384 kbps
    Видео
    Идентификатор : 1
    Формат : AVC
    Формат/Информация : Advanced Video Codec
    Профиль формата : High@L4.1
    Настройки формата : CABAC/4 Ref Frames
    Параметр CABAC формата : Да
    Параметр RefFrames формата : 4 кадра
    Идентификатор кодека : V_MPEG4/ISO/AVC
    Продолжительность : 1 ч. 54 м.
    Вид битрейта : Переменный
    Битрейт : 3675 Кбит/сек
    Максимальный битрейт : 4000 Кбит/сек
    Ширина : 1280 пикселей
    Высота : 560 пикселей
    Соотношение сторон : 2, 25: 1
    Режим частоты кадров : Постоянный
    Частота кадров : 23, 976 (24000/1001) кадра/сек
    Стандарт вещания : Component
    Цветовое пространство : YUV
    Субдискретизация насыщенности : 4: 2: 0
    Битовая глубина : 8 бит
    Тип развёртки : Прогрессивная
    Бит/(Пиксели*Кадры) : 0.214
    Размер потока : 2, 94 Гбайт (91%)
    Default : Да
    Forced : Нет
    Цветовой диапазон : Limited
    Основные цвета : BT.709
    Характеристики трансфера : BT.709
    Коэффициенты матрицы : BT.709
    Аудио
    Идентификатор : 2
    Формат : AC-3
    Формат/Информация : Audio Coding 3
    Коммерческое название : Dolby Digital
    Идентификатор кодека : A_AC3
    Продолжительность : 1 ч. 54 м.
    Вид битрейта : Постоянный
    Битрейт : 384 Кбит/сек
    Каналы : 2 канала
    ChannelLayout : L R
    Частота : 48, 0 КГц
    Частота кадров : 31, 250 кадров/сек (1536 SPF)
    Битовая глубина : 16 бит
    Метод сжатия : С потерями
    Размер потока : 314 Мбайт (9%)
    ServiceKind/String : Complete Main
    Default : Да
    Forced : Нет

    Скриншоты для ознакомления



    Все одноименные релизы в Клубе
    Время раздачи: 24/7 (круглосуточно) (до появления первых 3-5 скачавших)

    Онлайн видео Человек-паук: Вдали от дома



    Человек-паук: Вдали от дома/Spider-Man: Far from Home (2019) CamRip [H.264/720p-LQ] [MVO] [AD]
    Рейтинг →
     (голосов: 1, оценка 5/5, голосовать можно 1 раз )

    Другие торренты по теме:

  • Человек-паук: Вдали от дома / Spider-Man: Far From Home (2019) WEBRip [H.264 / 1080p] [Трейлер] [EN]
  • Человек-паук: Вдали от дома / Spider-Man: Far from Home (2019) CamRip [H.264 / 720p-LQ] [AD]
  • Michael Giacchino - Spider-Man: Far from Home / Человек-паук: Вдали от дома (Original Motion Picture Soundtrack) (2019) [FLAC|Lossless|WEB-DL|tracks]<Soundtrack>
  • Michael Giacchino - Spider-Man: Far from Home / Человек-паук: Вдали от дома (Original Motion Picture Soundtrack) (2019) [MP3|320 кб / с]<Soundtrack>
  • Человек-паук: Вдали от дома / Spider-Man: Far from Home (2019) TS [H.264 / 720p-LQ] [AD]
  • Человек-паук: Вдали от дома / Spider-Man: Far from Home (2019) WEB-DLRip [Line] [AD]
  • Человек-паук: Вдали от дома / Spider-Man: Far from Home (2019) WEB-DLRip [H.264 / 1080p-LQ] [Line, AD]
  • Человек-паук: Вдали от дома / Spider-Man: Far from Home (2019) WEB-DLRip [Line] [AD]


    • Комментарии (0):

      Информация

      Информация

        Посетители, находящиеся в группе Гости, не могут оставлять комментарии в данной новости.

        ↓ Меню




        ↓ Опрос

        Вы добавили сайт в закладки?
        Да
        Нет


        Популярное

        Рим / Rome (2005-2007) BDRip [H.264 / 1080p] (сезон 1-2, серии 1-22 из 22) LostFilm, НТВ+

        (скачиваний: 320)
        Звездочет (2004) DVDRip (серии 1-12 из 12)

        (скачиваний: 184)
        Во все тяжкие / Breaking Bad (2008-2013) BDRip [H.264 / 1080p] (сезон 1-5, серии 1-62 из 62) Кубик в Кубе, LostFilm скачать через торрент бесплатно

        (скачиваний: 166)
        Дылды (2019) WEB-DL [H.264 / 1080p-LQ] (сезон 1, серии 1 из 21) (обновляемая)

        (скачиваний: 164)
        Горе от ума (1977) DVD5 (Малый Театр)

        (скачиваний: 151)
        Солдаты (2004-2013) DVDRip / SATRip (сезон 1-17 + Дембельский альбом, серии 1-633 из 633) скачать через торрент бесплатно

        (скачиваний: 133)
        След (2007-2019) SATRip (серии 1-2135)

        (скачиваний: 109)
        Властелин колец / The Lord of the Rings (2001,2002,2003) BDRip [1080p] [Extended Edition] [Трилогия]

        (скачиваний: 93)
        Кремниевая долина / Silicon Valley (2014) HDTVRip (сезон 1, серии 1-8 из 8) Кубик в Кубе скачать через торрент бесплатно

        (скачиваний: 93)
        Друзья / Friends (1994-2004) BDRip (сезон 1-10, серии 1-236 из 236) РТР скачать через торрент бесплатно

        (скачиваний: 80)