.
Авторизация | Регистрация
bitok.xyz
» » Искусство обмана / Lying and Stealing (2019) WEB-DLRip [H.264 / 720p-LQ] [MVO] [AD] торрент скачать бесплатно


    Искусство обмана / Lying and Stealing (2019) WEB-DLRip [H.264 / 720p-LQ] [MVO] [AD] торрент скачать бесплатно

    Дата: 20-07-2019, 05:00 | .torrent скачали: 7

    Искусство обмана / Lying and Stealing (2019) WEB-DLRip [H.264 / 720p-LQ] [MVO] [AD]Производство: США/A Cota films Production
    Жанр: Комедия, криминал
    Режиссер: Мэтт Аселтон

    Актеры
    Тео Джеймс, Эмили Ратаковски, Арис Альварадо, Фернанда Андраде, Тим Бейдер, Джо Букаро III, Род Чауки, Рэй Рэй Чейз, Миа Чунг, Фрэнк Клем

    Описание

    Он — эксперт по искусству, вернее… его хищению. Она — модель с задатками актрисы и высоким IQ. Оба любят деньги и риск. Они просто созданы друг для друга… или это лишь фасад, чтобы провернуть изысканную и виртуозную аферу, больше похожую на арт-перформанс?

    Возраст: 18+ (зрителям, достигшим 18 лет. запрещено для детей)
    Рейтинг MPAA: R (лицам до 17 лет обязательно присутствие взрослого)
    Дата мировой премьеры: 21 марта 2019
    Дата премьеры в России: 18 июля 2019

    Продолжительность: 01: 38: 51
    Качество видео: WEB-DLRip
    Перевод: Многоголосый закадровый, профессиональный (Синема УС)
    Субтитры: Отсутствуют
    Реклама: Присутствует баннер.
    Видео: AVC/H.264, 1280x536, ~5295 Kbps
    Аудио: AC-3, 2 ch, 384 Kbps
    Общее
    Уникальный идентификатор : 227851099346844788338893183311811358901 (0xAB6A8687C81BD6028381F886C65AB0B5)
    Полное имя : D: NNMИскусство обманаLying.and.Stealing.2019.WEB-DLRip.720p-LQ.mkv
    Формат : Matroska
    Версия формата : Version 4
    Размер файла : 4, 00 Гбайт
    Продолжительность : 1 ч. 38 м.
    Режим общего битрейта : Переменный
    Общий поток : 5794 Кбит/сек
    Дата кодирования : UTC 2019-07-18 23: 00: 17
    Программа кодирования : mkvmerge v6.9.1 (\'Blue Panther\') 32bit built on Apr 18 2014 18: 15: 44
    Библиотека кодирования : libebml v1.3.0 + libmatroska v1.4.1
    Видео
    Идентификатор : 1
    Формат : AVC
    Формат/Информация : Advanced Video Codec
    Профиль формата : High@L4.1
    Настройки формата : CABAC/4 Ref Frames
    Параметр CABAC формата : Да
    Параметр RefFrames формата : 4 кадра
    Идентификатор кодека : V_MPEG4/ISO/AVC
    Продолжительность : 1 ч. 38 м.
    Вид битрейта : Переменный
    Битрейт : 5295 Кбит/сек
    Номинальный битрейт : 6000 Кбит/сек
    Максимальный битрейт : 6000 Кбит/сек
    Ширина : 1280 пикселей
    Высота : 536 пикселей
    Соотношение сторон : 2, 40: 1
    Режим частоты кадров : Постоянный
    Частота кадров : 23, 976 (24000/1001) кадра/сек
    Стандарт вещания : Component
    Цветовое пространство : YUV
    Субдискретизация насыщенности : 4: 2: 0
    Битовая глубина : 8 бит
    Тип развёртки : Прогрессивная
    Бит/(Пиксели*Кадры) : 0.322
    Размер потока : 3, 66 Гбайт (91%)
    Default : Нет
    Forced : Нет
    Цветовой диапазон : Limited
    Основные цвета : BT.709
    Характеристики трансфера : BT.709
    Коэффициенты матрицы : BT.709
    Аудио
    Идентификатор : 2
    Формат : AC-3
    Формат/Информация : Audio Coding 3
    Коммерческое название : Dolby Digital
    Идентификатор кодека : A_AC3
    Продолжительность : 1 ч. 38 м.
    Вид битрейта : Постоянный
    Битрейт : 384 Кбит/сек
    Каналы : 2 канала
    Channel layout : L R
    Частота : 48, 0 КГц
    Частота кадров : 31, 250 кадров/сек (1536 SPF)
    Битовая глубина : 16 бит
    Метод сжатия : С потерями
    Размер потока : 272 Мбайт (7%)
    Язык : Russian
    ServiceKind/String : Complete Main
    Default : Да
    Forced : Нет

    Скриншоты для ознакомления



    Все одноименные релизы в Клубе Время раздачи: 24/7 (до появления первых 3-5 скачавших)

    Онлайн видео Искусство обмана



    Искусство обмана/Lying and Stealing (2019) WEB-DLRip [H.264/720p-LQ] [MVO] [AD]
    Рейтинг →
     (голосов: 1, оценка 5/5, голосовать можно 1 раз )

    Другие торренты по теме:

  • Cheating Craft / Искусство обмана [2016, TV, 1 из 12] WEB-DLRip 720p raw
  • Ираклий Шанидзе | Фотография. Искусство обмана (2018) [PDF]
  • Искусство обмана / Lying and Stealing (2019) WEB-DLRip [H.264] [MVO]
  • Искусство обмана / Lying and Stealing (2019) WEB-DL [H.265 / 1080p-LQ] [10-bit] [MVO]
  • Искусство обмана / Lying and Stealing (2019) WEB-DLRip [H.265 / 720p-LQ] [10-bit] [MVO]
  • Искусство обмана / Lying and Stealing (2019) WEB-DLRip [H.265] [10-bit] [MVO]
  • Искусство обмана / Lying and Stealing (2019) WEB-DL [H.264 / 1080p-LQ] [MVO]
  • Искусство обмана / Lying and Stealing (2019) WEB-DLRip


    • Комментарии (0):

      Информация

      Информация

        Посетители, находящиеся в группе Гости, не могут оставлять комментарии в данной новости.

        ↓ Меню




        ↓ Опрос

        Вы добавили сайт в закладки?
        Да
        Нет


        Популярное

        След (2007-2019) SATRip (серии 1-2135)

        (скачиваний: 54)
        Тайны следствия (2001) WEBRip (сезон 1, серии 1-16 из 16)

        (скачиваний: 49)
        Кремниевая долина / Silicon Valley (2014) HDTVRip (сезон 1, серии 1-8 из 8) Кубик в Кубе скачать через торрент бесплатно

        (скачиваний: 47)
        Солдаты (2004-2013) DVDRip / SATRip (сезон 1-17 + Дембельский альбом, серии 1-633 из 633) скачать через торрент бесплатно

        (скачиваний: 41)
        Бесстыжие / Shameless (US) (2011–2014) BDRip, HDTVRip [720p] (Сезон 1-4, серии 1-48 из 48) (AlexFilm) скачать через торрент бесплатно

        (скачиваний: 37)
        Друзья / Friends (1994-2004) BDRip (сезон 1-10, серии 1-236 из 236) РТР скачать через торрент бесплатно

        (скачиваний: 35)
        Рим / Rome (2005-2007) BDRip [H.264 / 1080p] (сезон 1-2, серии 1-22 из 22) LostFilm, НТВ+

        (скачиваний: 34)
        Россия молодая (1982) DVDRip [H.264] (серии 1-9 из 9) скачать через торрент бесплатно

        (скачиваний: 30)
        Секс ради выживания / Three (2005) WEB-DLRip [H.264]

        (скачиваний: 28)
        Бесстыжие / Shameless (US) (2011) BDRemux (сезон 1, серии 1-12 из 12) AlexFilm

        (скачиваний: 26)