.
Авторизация | Регистрация
bitok.xyz
» » Искусство обмана / Lying and Stealing (2019) WEB-DL [H.265 / 1080p-LQ] [10-bit] [MVO] торрент скачать бесплатно


    Искусство обмана / Lying and Stealing (2019) WEB-DL [H.265 / 1080p-LQ] [10-bit] [MVO] торрент скачать бесплатно

    Дата: 26-07-2019, 05:00 | .torrent скачали: 4

    Искусство обмана / Lying and Stealing (2019) WEB-DL [H.265 / 1080p-LQ] [10-bit] [MVO]Производство: США/A Cota films Production
    Жанр: Комедия, криминал
    Режиссер: Мэтт Аселтон

    Актеры
    Тео Джеймс, Эмили Ратаковски, Арис Альварадо, Фернанда Андраде, Тим Бейдер, Джо Букаро III, Род Чауки, Рэй Рэй Чейз, Миа Чунг, Фрэнк Клем

    Описание

    Он — эксперт по искусству, вернее… его хищению. Она — модель с задатками актрисы и высоким IQ. Оба любят деньги и риск. Они просто созданы друг для друга… или это лишь фасад, чтобы провернуть изысканную и виртуозную аферу, больше похожую на арт-перформанс?

    Возраст: 18+ (зрителям, достигшим 18 лет. запрещено для детей)
    Рейтинг MPAA: R (лицам до 17 лет обязательно присутствие взрослого)
    Дата мировой премьеры: 21 марта 2019
    Дата премьеры в России: 18 июля 2019

    Продолжительность: 01: 40: 17
    Качество видео: WEB-DL
    Перевод: Многоголосый закадровый, профессиональный (HDRezka Studio)
    Субтитры: Английские (полные, SDH)
    Видео: HEVC/H.265, 1920x800, ~3938 kbps
    Аудио #1 : AC3, 2 ch, 192 Kbps | Русский
    Аудио #2 : AC3, 6 ch, 640 Kbps | АнглийскийОбщее
    Уникальный идентификатор : 213802835545479570293483300362193397488 (0xA0D8EDA6321407A1B9D4104B950EE6F0)
    Полное имя : Lying.and.Stealing.2019.1080p.AMZN.WEB-DL.HEVC.mkv
    Формат : Matroska
    Версия формата : Version 4
    Размер файла : 3, 34 Гбайт
    Продолжительность : 1 ч. 40 м.
    Общий поток : 4771 Кбит/сек
    Дата кодирования : UTC 2019-07-24 16: 36: 02
    Программа кодирования : mkvmerge v8.3.0 (\'Over the Horizon\') 64bit
    Библиотека кодирования : libebml v1.3.1 + libmatroska v1.4.2
    Видео
    Идентификатор : 1
    Формат : HEVC
    Формат/Информация : High Efficiency Video Coding
    Профиль формата : Main10@L4.1@High
    Идентификатор кодека : V_MPEGH/ISO/HEVC
    Продолжительность : 1 ч. 40 м.
    Битрейт : 3938 Кбит/сек
    Ширина : 1920 пикселей
    Высота : 800 пикселей
    Соотношение сторон : 2, 40: 1
    Режим частоты кадров : Постоянный
    Частота кадров : 24, 000 кадра/сек
    Цветовое пространство : YUV
    Субдискретизация насыщенности : 4: 2: 0
    Битовая глубина : 10 бит
    Бит/(Пиксели*Кадры) : 0.107
    Размер потока : 2, 76 Гбайт (83%)
    Язык : English
    Default : Да
    Forced : Нет
    Цветовой диапазон : Limited
    Основные цвета : BT.709
    Характеристики трансфера : BT.709
    Коэффициенты матрицы : BT.709
    Аудио #1
    Идентификатор : 2
    Формат : AC-3
    Формат/Информация : Audio Coding 3
    Коммерческое название : Dolby Digital
    Идентификатор кодека : A_AC3
    Продолжительность : 1 ч. 40 м.
    Вид битрейта : Постоянный
    Битрейт : 192 Кбит/сек
    Каналы : 2 канала
    Channel layout : L R
    Частота : 48, 0 КГц
    Частота кадров : 31, 250 кадров/сек (1536 SPF)
    Битовая глубина : 16 бит
    Метод сжатия : С потерями
    Размер потока : 138 Мбайт (4%)
    Заголовок : MVO HDRezka Studio
    Язык : Russian
    ServiceKind/String : Complete Main
    Default : Да
    Forced : Нет
    Аудио #2
    Идентификатор : 3
    Формат : E-AC-3
    Формат/Информация : Enhanced AC-3
    Коммерческое название : Dolby Digital Plus
    Идентификатор кодека : A_EAC3
    Продолжительность : 1 ч. 40 м.
    Вид битрейта : Постоянный
    Битрейт : 640 Кбит/сек
    Каналы : 6 каналов
    Channel layout : L R C LFE Ls Rs
    Частота : 48, 0 КГц
    Частота кадров : 31, 250 кадров/сек (1536 SPF)
    Метод сжатия : С потерями
    Размер потока : 459 Мбайт (13%)
    Язык : English
    ServiceKind/String : Complete Main
    Default : Нет
    Forced : Нет
    Текст #1
    Идентификатор : 4
    Формат : UTF-8
    Идентификатор кодека : S_TEXT/UTF8
    Идентификатор кодека/Информация : UTF-8 Plain Text
    Продолжительность : 1 ч. 38 м.
    Битрейт : 62 бит/сек
    ElementCount : 1676
    Размер потока : 45, 0 Кбайт (0%)
    Заголовок : Full
    Язык : English
    Default : Нет
    Forced : Нет
    Текст #2
    Идентификатор : 5
    Формат : UTF-8
    Идентификатор кодека : S_TEXT/UTF8
    Идентификатор кодека/Информация : UTF-8 Plain Text
    Продолжительность : 1 ч. 39 м.
    Битрейт : 74 бит/сек
    ElementCount : 2014
    Размер потока : 54, 1 Кбайт (0%)
    Заголовок : SDH
    Язык : English
    Default : Нет
    Forced : Нет
    Скриншоты для ознакомления



    Все одноименные релизы в Клубе Время раздачи: 24/7 (до появления первых 3-5 скачавших)

    Онлайн видео Искусство обмана



    Искусство обмана/Lying and Stealing (2019) WEB-DL [H.265/1080p-LQ] [10-bit] [MVO]
    Рейтинг →
     (голосов: 1, оценка 4/5, голосовать можно 1 раз )

    Другие торренты по теме:

  • Cheating Craft / Искусство обмана [2016, TV, 1 из 12] WEB-DLRip 720p raw
  • Ираклий Шанидзе | Фотография. Искусство обмана (2018) [PDF]
  • Искусство обмана / Lying and Stealing (2019) WEB-DLRip [H.264 / 720p-LQ] [MVO] [AD]
  • Искусство обмана / Lying and Stealing (2019) WEB-DLRip [H.264] [MVO]
  • Искусство обмана / Lying and Stealing (2019) WEB-DLRip [H.265 / 720p-LQ] [10-bit] [MVO]
  • Искусство обмана / Lying and Stealing (2019) WEB-DLRip [H.265] [10-bit] [MVO]
  • Искусство обмана / Lying and Stealing (2019) WEB-DL [H.264 / 1080p-LQ] [MVO]
  • Искусство обмана / Lying and Stealing (2019) WEB-DLRip


    • Комментарии (0):

      Информация

      Информация

        Посетители, находящиеся в группе Гости, не могут оставлять комментарии в данной новости.

        ↓ Меню




        ↓ Опрос

        Вы добавили сайт в закладки?
        Да
        Нет


        Популярное