.
Авторизация | Регистрация
bitok.xyz
Торрент скачать бесплатно Фильмы торрент скачать Полицейский с Рублёвки. Новогодний беспредел 2 (2019) WEBRip [H.264 / 1080p-LQ] [Тизер] торрент скачать бесплатно


    Полицейский с Рублёвки. Новогодний беспредел 2 (2019) WEBRip [H.264 / 1080p-LQ] [Тизер] торрент скачать бесплатно

    Дата: 26-07-2019, 05:00 | .torrent скачали: 121

    Полицейский с Рублёвки. Новогодний беспредел 2 (2019) WEBRip [H.264 / 1080p-LQ] [Тизер]Производство: Россия/LEGIO FELIX, ТНТ, Централ Партнершип
    Жанр: Комедия
    Режиссер: Илья Куликов

    Актеры
    Сергей Бурунов, Рина Гришина, Иван Киренков и др.

    Описание

    Сиквел комедии Полицейский с Рублёвки. Новогодний беспредел появится на больших экранах страны с 12 декабря, сообщает пресс-служба кинокомпании Централ Партнершип.
    Специально к анонсу потенциального хита грядущей новогодней битвы авторы фильма выпустили ролик с участием полковника Яковлева (Сергей Бурунов) и капитана Рыбкиной (Рина Гришина). В этом ролике герои Полицейского с Рублёвки не изменяют своим традициям и продолжают троллить другие российские фильмы из праздничного репертуара, как это было в прошлом году с Ёлками.

    Возраст: 16+ (зрителям, достигшим 16 лет)
    Дата российской премьеры: 12 декабря 2019, Централ Партнершип
    Продолжительность: 00: 02: 23
    Качество видео: WEBRip
    Перевод: Не требуется (русский)
    Субтитры: Отсутствуют
    Видео: AVC/H.264, 1920x1080 (16: 9), ~5000 Kbps
    Аудио: AC3, 2 ch, 128 Kbps
    Общее
    Уникальный идентификатор : 165053161898207479272180268868728564483 (0x7C2C152B46154F8E1A873E316340AB03)
    Полное имя : G: Полицейский с Рублевки. Новогодний беспредел 2! (2019).mkv
    Формат : Matroska
    Версия формата : Version 4
    Размер файла : 85, 2 Мбайт
    Продолжительность : 2 м. 23 с.
    Общий поток : 4989 Кбит/сек
    Дата кодирования : UTC 2019-07-24 19: 49: 23
    Программа кодирования : mkvmerge v35.0.0 (\'All The Love In The World\') 64-bit
    Библиотека кодирования : libebml v1.3.9 + libmatroska v1.5.2/Lavf57.71.100
    Видео
    Идентификатор : 1
    Формат : AVC
    Формат/Информация : Advanced Video Codec
    Профиль формата : High@L4
    Настройки формата : CABAC/4 Ref Frames
    Параметр CABAC формата : Да
    Параметр RefFrames формата : 4 кадра
    Идентификатор кодека : V_MPEG4/ISO/AVC
    Продолжительность : 2 м. 23 с.
    Битрейт : 5000 Кбит/сек
    Ширина : 1920 пикселей
    Высота : 1080 пикселей
    Соотношение сторон : 16: 9
    Режим частоты кадров : Постоянный
    Частота кадров : 24, 000 кадра/сек
    Цветовое пространство : YUV
    Субдискретизация насыщенности : 4: 2: 0
    Битовая глубина : 8 бит
    Тип развёртки : Прогрессивная
    Бит/(Пиксели*Кадры) : 0.100
    Размер потока : 83, 0 Мбайт (97%)
    Библиотека кодирования : x264 core 148 r2721 72d53ab
    Настройки программы : cabac=1/ref=4/deblock=1: 0: 0/analyse=0x3: 0x133/me=umh/subme=10/psy=1/psy_rd=1.00: 0.00/mixed_ref=1/me_range=24/chroma_me=1/trellis=2/8x8dct=1/cqm=0/deadzone=21, 11/fast_pskip=1/chroma_qp_offset=-2/threads=34/lookahead_threads=5/sliced_threads=0/nr=0/decimate=1/interlaced=0/bluray_compat=0/constrained_intra=0/bframes=8/b_pyramid=2/b_adapt=2/b_bias=0/direct=3/weightb=1/open_gop=0/weightp=2/keyint=96/keyint_min=48/scenecut=40/intra_refresh=0/rc_lookahead=60/rc=2pass/mbtree=1/bitrate=5000/ratetol=1.0/qcomp=0.60/qpmin=0/qpmax=69/qpstep=4/cplxblur=20.0/qblur=0.5/vbv_maxrate=5000/vbv_bufsize=5000/nal_hrd=none/filler=0/ip_ratio=1.40/aq=1: 1.00
    Default : Да
    Forced : Нет
    Цветовой диапазон : Full
    Аудио
    Идентификатор : 2
    Формат : AC-3
    Формат/Информация : Audio Coding 3
    Коммерческое название : Dolby Digital
    Идентификатор кодека : A_AC3
    Продолжительность : 2 м. 23 с.
    Вид битрейта : Постоянный
    Битрейт : 128 Кбит/сек
    Каналы : 2 канала
    ChannelLayout : L R
    Частота : 48, 0 КГц
    Частота кадров : 31, 250 кадров/сек (1536 SPF)
    Битовая глубина : 16 бит
    Метод сжатия : С потерями
    Размер потока : 2, 19 Мбайт (3%)
    ServiceKind/String : Complete Main
    Default : Да
    Forced : Нет

    Скриншоты для ознакомления



    Все одноименные релизы в Клубе
    Время раздачи: 24/7 (круглосуточно) (до появления первых 3-5 скачавших)

    Онлайн видео Полицейский с Рублёвки. Новогодний беспредел 2 (2019) WEBRip [H.264


    Полицейский с Рублёвки. Новогодний беспредел 2 (2019) WEBRip [H.264 / 1080p-LQ] [Тизер] торрент скачать бесплатно
    Рейтинг →
     (голосов: 1, оценка 3/5, голосовать можно 1 раз )

    Другие торренты по теме:

  • Полицейский с Рублёвки (2016) SATRip (серии 1 из 8) (обновляемая)
  • Полицейский с Рублёвки (2016) DVB [H.264] (серии 1-4 из 8) (обновляемая)
  • Полицейский с Рублёвки (2016) DVB (серии 1-8 из 8)
  • Полицейский с Рублёвки (2016) WEB-DL [H.264 / 720p-LQ] (Серии 1-8 из 8)
  • Полицейский с Рублёвки в Бескудниково (2017) SATRip [H.264] (сезон 2, серии 1 из 8 ) (обновляемая)
  • Полицейский с Рублёвки в Бескудниково (2017) SATRip (сезон 2, серии 1 из 8) (обновляемая)
  • Полицейский с Рублёвки в Бескудниково (2017) HDTVRip (сезон 1, серии 1 из 8) (обновляемая)
  • Полицейский с Рублёвки в Бескудниково (2017) HDTVRip [H.264 / 720p-LQ] (сезон 2, серии 1 из 8) (обновляемая)


    • Комментарии (0):

      Информация

      Информация

        Посетители, находящиеся в группе Гости, не могут оставлять комментарии в данной новости.

        ↓ Меню




        ↓ Опрос

        Вы добавили сайт в закладки?
        Да
        Нет


        Популярное