.
Авторизация | Регистрация
bitok.xyz
» » Как отмыть миллион / La chute de lempire americain (2018) WEB-DLRip [H.264] торрент скачать бесплатно


    Как отмыть миллион / La chute de lempire americain (2018) WEB-DLRip [H.264] торрент скачать бесплатно

    Дата: 5-09-2019, 05:00 | .torrent скачали: 0

    Как отмыть миллион / La chute de lempire americain (2018) WEB-DLRip [H.264]Производство: Канада/Cinémaginaire Inc.
    Жанр: Комедия, криминал
    Режиссер: Дени Аркан

    Актеры
    Александр Ландри, Мари-Пьер Морен, Реми Жирар, Максим Рой, Эрик Брюно, Венсан Леклер, Жюльетт Госслен, Пьер Курци, Ян Инглэнд, Роз-Мари Перро

    Описание

    Скромняга Пьер-Поль, обладатель ученой степени, вынужден подрабатывать курьером. В один прекрасный день, доставляя очередную посылку, он первым оказывается на месте преступления и становится обладателем миллионного куша. Искушение решить все житейские проблемы велико. И пока он размышляет вернуть или присвоить огромную сумму наличных, его начинают преследовать бандиты, а полиция не спускает с него глаз. Спасаясь и от тех, и от других, интеллектуал Пьер-Поль встречает роковую красотку…

    Возраст: 16+ (зрителям, достигшим 16 лет)
    Рейтинг MPAA: R (лицам до 17 лет обязательно присутствие взрослого)
    Дата мировой премьеры: 19 июня 2018
    Дата премьеры в России: 1 августа 2019
    Цифровой релиз: 4 сентября 2019

    Релиз от: NNMClub
    Продолжительность: 02: 07: 17
    Качество видео: WEB-DLRip (AVC)
    Перевод: Профессиональный многоголосый (iTunes)
    Субтитры: Отсутствуют
    Видео: AVC/H.264, 1024x432, ~1254 Kbps
    Аудио: AC-3, 6 ch, 384 Kbps
    Общее
    Уникальный идентификатор : 236547585448333100356400255782703502445 (0xB1F568662763D45ABDC4C2BDEDE6946D)
    Полное имя : D: NNMКак отмыть миллионKak.otmytj.million.2018.WEB-DLRip.AVC.NNMClub.mkv
    Формат : Matroska
    Версия формата : Version 2
    Размер файла : 1, 45 Гбайт
    Продолжительность : 2 ч. 7 м.
    Общий поток : 1635 Кбит/сек
    Дата кодирования : UTC 2019-09-04 11: 11: 14
    Программа кодирования : mkvmerge v7.8.0 (\'River Man\') 32bit built on Apr 3 2015 12: 11: 22
    Библиотека кодирования : libebml v1.3.1 + libmatroska v1.4.2
    Видео
    Идентификатор : 1
    Формат : AVC
    Формат/Информация : Advanced Video Codec
    Профиль формата : High@L4.1
    Настройки формата : CABAC/12 Ref Frames
    Параметр CABAC формата : Да
    Параметр RefFrames формата : 12 кадров
    Идентификатор кодека : V_MPEG4/ISO/AVC
    Продолжительность : 2 ч. 7 м.
    Битрейт : 1254 Кбит/сек
    Ширина : 1024 пикселя
    Высота : 432 пикселя
    Соотношение сторон : 2, 40: 1
    Режим частоты кадров : Постоянный
    Частота кадров : 24, 000 кадра/сек
    Цветовое пространство : YUV
    Субдискретизация насыщенности : 4: 2: 0
    Битовая глубина : 8 бит
    Тип развёртки : Прогрессивная
    Бит/(Пиксели*Кадры) : 0.118
    Размер потока : 1, 08 Гбайт (75%)
    Библиотека кодирования : x264 core 146 r2538 121396c
    Настройки программы : cabac=1/ref=12/deblock=1: -3: -3/analyse=0x3: 0x113/me=umh/subme=11/psy=1/psy_rd=1.00: 0.15/mixed_ref=1/me_range=32/chroma_me=1/trellis=2/8x8dct=1/cqm=0/deadzone=21, 11/fast_pskip=0/chroma_qp_offset=-3/threads=12/lookahead_threads=2/sliced_threads=0/nr=0/decimate=0/interlaced=0/bluray_compat=0/constrained_intra=0/bframes=10/b_pyramid=2/b_adapt=2/b_bias=0/direct=1/weightb=1/open_gop=0/weightp=2/keyint=240/keyint_min=23/scenecut=40/intra_refresh=0/rc_lookahead=40/rc=2pass/mbtree=0/bitrate=1254/ratetol=1.0/qcomp=0.60/qpmin=0/qpmax=69/qpstep=4/cplxblur=20.0/qblur=0.5/vbv_maxrate=50000/vbv_bufsize=62500/nal_hrd=none/filler=0/ip_ratio=1.40/pb_ratio=1.30/aq=1: 0.90
    Default : Да
    Forced : Нет
    Аудио
    Идентификатор : 2
    Формат : AC-3
    Формат/Информация : Audio Coding 3
    Коммерческое название : Dolby Digital
    Идентификатор кодека : A_AC3
    Продолжительность : 2 ч. 7 м.
    Вид битрейта : Постоянный
    Битрейт : 384 Кбит/сек
    Каналы : 6 каналов
    Channel layout : L R C LFE Ls Rs
    Частота : 48, 0 КГц
    Частота кадров : 31, 250 кадров/сек (1536 SPF)
    Битовая глубина : 16 бит
    Метод сжатия : С потерями
    Размер потока : 350 Мбайт (23%)
    ServiceKind/String : Complete Main
    Default : Да
    Forced : Нет

    Скриншоты для ознакомления



    Все одноименные релизы в Клубе Время раздачи: 24/7 (до появления первых 3-5 скачавших)

    Онлайн видео Как отмыть миллион



    Как отмыть миллион/La chute de lempire americain (2018) WEB-DLRip [H.264]
    Рейтинг →
     (голосов: 1, оценка 5/5, голосовать можно 1 раз )

    Другие торренты по теме:

  • Как отмыть миллион / La chute de lempire americain (2018) CAMRip [MVO] [AD]
  • Как отмыть миллион / La chute de lempire americain (2018) WEB-DL [H.264 / 1080p-LQ]
  • Как отмыть миллион / La chute de lempire americain (2018) WEB-DLRip
  • Как отмыть миллион / La chute de lempire américain (2018) WEB-DL [H.264 / 720p-LQ]
  • Как отмыть миллион / La chute de lempire americain (2018) BDRip
  • Как отмыть миллион / La chute de lempire americain (2018) BDRip [H.264 / 1080p]
  • Как отмыть миллион / La chute de lempire americain (2018) BDRemux [H.264 / 1080p]
  • Как отмыть миллион / La chute de lempire americain (2018) BDRip [H.265] [10-bit]


    • Комментарии (0):

      Информация

      Информация

        Посетители, находящиеся в группе Гости, не могут оставлять комментарии в данной новости.

        ↓ Меню




        ↓ Опрос

        Вы добавили сайт в закладки?
        Да
        Нет


        Популярное