.
Авторизация | Регистрация
bitok.xyz
» » Как отмыть миллион / La chute de lempire américain (2018) WEB-DL [H.264 / 720p-LQ] торрент скачать бесплатно


    Как отмыть миллион / La chute de lempire américain (2018) WEB-DL [H.264 / 720p-LQ] торрент скачать бесплатно

    Дата: 6-09-2019, 05:00 | .torrent скачали: 0

    Как отмыть миллион / La chute de lempire américain (2018) WEB-DL [H.264 / 720p-LQ]Производство: Канада/Cinémaginaire Inc.
    Жанр: Комедия, криминал
    Режиссер: Дени Аркан
    Продюсер: Дениз Робер, Доминик Беснеар, Martin Desroches

    Актеры
    Александр Ландри, Мари-Пьер Морен, Реми Жирар, Максим Рой, Эрик Брюно, Жюльетт Госслен, Венсан Леклер, Клод Лего, Ян Инглэнд, Бенуа Бриер

    Описание
    Скромняга Пьер-Поль, обладатель ученой степени, вынужден подрабатывать курьером. В один прекрасный день, доставляя очередную посылку, он первым оказывается на месте преступления и становится обладателем миллионного куша. Искушение решить все житейские проблемы велико. И пока он размышляет вернуть или присвоить огромную сумму наличных, его начинают преследовать бандиты, а полиция не спускает с него глаз. Спасаясь и от тех, и от других, интеллектуал Пьер-Поль встречает роковую красотку…

    Возраст: 16+ Зрителям, достигшим 16 лет
    Рейтинг MPAA: R Лицам до 17 обязательно присутствие взрослых
    Дата мировой премьеры: 19 июня 2018
    Дата российской премьеры: 1 августа 2019, Русский Репортаж
    Цифровой релиз: 4 сентября 2019, Русский Репортаж
    Релиз от: TeamHD
    Продолжительность: 02: 07: 42
    Качество видео: WEB-DL 720p
    Перевод: Профессиональный (многоголосый закадровый)(iTunes)
    Субтитры: Нет
    Видео: AVC/H.264, 1280x536, 4 084 Kbps, 24.000 fps
    Аудио: AC-3, 6 ch, 384 Kbps | Русский
    General
    Unique ID : 66991504840391640111851286979847314406 (0x32661832687C467D09A4A15FBF12DBE6)
    Complete name : /Volumes/Promise Pegasus/Kak.otmutj.million..WEB-DL.720p.mkv
    Format : Matroska
    Format version : Version 4
    File size : 3.99 GiB
    Duration : 2h 7mn
    Overall bit rate : 4 470 Kbps
    Movie name : La chute de l\'empire americain (2018) WEB-DL 720p
    Encoded date : UTC 2019-09-05 09: 53: 30
    Writing application : mkvmerge v37.0.0 (\'Leave It\') 64-bit
    Writing library : libebml v1.3.9 + libmatroska v1.5.2
    Video
    ID : 1
    Format : AVC
    Format/Info : Advanced Video Codec
    Format profile : Main@L3.1
    Format settings : 2 Ref Frames
    Format settings, CABAC : No
    Format settings, ReFrames : 2 frames
    Codec ID : V_MPEG4/ISO/AVC
    Duration : 2h 7mn
    Bit rate : 4 084 Kbps
    Width : 1 280 pixels
    Height : 536 pixels
    Display aspect ratio : 2.40: 1
    Frame rate mode : Constant
    Frame rate : 24.000 fps
    Color space : YUV
    Chroma subsampling : 4: 2: 0
    Bit depth : 8 bits
    Scan type : Progressive
    Bits/(Pixel*Frame) : 0.248
    Stream size : 3.64 GiB (91%)
    Title : Main Program
    Language : English
    Default : Yes
    Forced : No
    Color range : Limited
    Color primaries : BT.709
    Transfer characteristics : BT.709
    Matrix coefficients : BT.709
    Audio
    ID : 2
    Format : AC-3
    Format/Info : Audio Coding 3
    Commercial name : Dolby Digital
    Codec ID : A_AC3
    Duration : 2h 7mn
    Bit rate mode : Constant
    Bit rate : 384 Kbps
    Channel(s) : 6 channels
    Channel layout : L R C LFE Ls Rs
    Sampling rate : 48.0 KHz
    Frame rate : 31.250 fps (1536 SPF)
    Bit depth : 16 bits
    Compression mode : Lossy
    Stream size : 351 MiB (9%)
    Title : Russian MVO iTunes
    Language : Russian
    Service kind : Complete Main
    Default : Yes
    Forced : No
    Menu
    00: 00: 00.000 : en: Глава 1
    00: 08: 56.083 : en: Глава 2
    00: 16: 51.124 : en: Глава 3
    00: 26: 33.790 : en: Глава 4
    00: 35: 51.623 : en: Глава 5
    00: 43: 50.706 : en: Глава 6
    00: 52: 49.914 : en: Глава 7
    00: 59: 25.830 : en: Глава 8
    01: 07: 26.038 : en: Глава 9
    01: 17: 20.621 : en: Глава 10
    01: 27: 36.496 : en: Глава 11
    01: 36: 15.537 : en: Глава 12
    01: 45: 04.495 : en: Глава 13
    01: 53: 02.703 : en: Глава 14
    01: 59: 56.119 : en: Глава 15

    Скриншоты для ознакомления



    Все одноименные релизы в Клубе
    Время раздачи: 24/7 (круглосуточно) (до появления первых 3-5 скачавших)

    Онлайн видео Как отмыть миллион



    Как отмыть миллион/La chute de lempire américain (2018) WEB-DL [H.264/720p-LQ]
    Рейтинг →
     (голосов: 1, оценка 3/5, голосовать можно 1 раз )

    Другие торренты по теме:

  • Как отмыть миллион / La chute de lempire americain (2018) CAMRip [MVO] [AD]
  • Как отмыть миллион / La chute de lempire americain (2018) WEB-DLRip [H.264]
  • Как отмыть миллион / La chute de lempire americain (2018) WEB-DL [H.264 / 1080p-LQ]
  • Как отмыть миллион / La chute de lempire americain (2018) WEB-DLRip
  • Как отмыть миллион / La chute de lempire americain (2018) BDRip
  • Как отмыть миллион / La chute de lempire americain (2018) BDRip [H.264 / 1080p]
  • Как отмыть миллион / La chute de lempire americain (2018) BDRemux [H.264 / 1080p]
  • Как отмыть миллион / La chute de lempire americain (2018) BDRip [H.265] [10-bit]


    • Комментарии (0):

      Информация

      Информация

        Посетители, находящиеся в группе Гости, не могут оставлять комментарии в данной новости.

        ↓ Меню




        ↓ Опрос

        Вы добавили сайт в закладки?
        Да
        Нет


        Популярное