.
Авторизация | Регистрация

bitok.xyz

» » Человек-паук: Вдали от дома / Spider-Man: Far from Home (2019) WEB-DLRip [Line] [AD] торрент скачать бесплатно


    Человек-паук: Вдали от дома / Spider-Man: Far from Home (2019) WEB-DLRip [Line] [AD] торрент скачать бесплатно

    Дата: 12-09-2019, 05:00 | .torrent скачали: 0

    Человек-паук: Вдали от дома / Spider-Man: Far from Home (2019) WEB-DLRip [Line] [AD]Производство: США/Columbia Pictures, Marvel Studios, Pascal Pictures
    Жанр: Фантастика, боевик, приключения
    Режиссер: Джон Уоттс

    Актеры
    Том Холланд, Сэмюэл Л. Джексон, Джейк Джилленхол, Зендея, Коби Смолдерс, Мариса Томей, Джон Фавро, Джейкоб Баталон, Тони Револори, Энгаури Райс

    Описание

    Питер Паркер вместе с друзьями отправляется на летние каникулы в Европу. Однако отдохнуть приятелям вряд ли удастся: Питеру придётся согласиться помочь Нику Фьюри раскрыть тайну существ, вызывающих стихийные бедствия и разрушения по всему континенту.

    Возраст: 12+ (зрителям, достигшим 12 лет)
    Рейтинг MPAA: PG-13 (детям до 13 лет просмотр нежелателен)
    Дата мировой премьеры: 26 июня 2019
    Дата российской премьеры: 4 июля 2019
    Продолжительность: 02: 07: 05
    Качество видео: WEB-DLRip
    Перевод: Дублированный чистый звук
    Субтитры: Отсутствуют
    Реклама: Присутствует баннер.
    Видео: XviD, 720x304, ~1831 Kbps
    Аудио: AC-3, 2 ch, 384 Kbps
    Общее
    Полное имя : D: NNMЧеловек-паукSpider-Man.Fa.from.Home.2019.WEB-DLRip.avi
    Формат : AVI
    Формат/Информация : Audio Video Interleave
    Профиль формата : OpenDML
    Размер файла : 1, 98 Гбайт
    Продолжительность : 2 ч. 7 м.
    Общий поток : 2227 Кбит/сек
    Видео
    Идентификатор : 0
    Формат : MPEG-4 Visual
    Профиль формата : Advanced Simple@L5
    Настройки формата : BVOP2/Custom Matrix
    Параметр BVOP формата : 2
    Параметр QPel формата : Нет
    Параметр GMC формата : Без точки перехода
    Параметр матрицы формата : Выборочная
    Идентификатор кодека : XVID
    Идентификатор кодека/Подсказка : XviD
    Продолжительность : 2 ч. 7 м.
    Битрейт : 1831 Кбит/сек
    Ширина : 720 пикселей
    Высота : 304 пикселя
    Соотношение сторон : 2, 35: 1
    Частота кадров : 23, 976 (24000/1001) кадра/сек
    Цветовое пространство : YUV
    Субдискретизация насыщенности : 4: 2: 0
    Битовая глубина : 8 бит
    Тип развёртки : Прогрессивная
    Метод сжатия : С потерями
    Бит/(Пиксели*Кадры) : 0.349
    Размер потока : 1, 63 Гбайт (82%)
    Библиотека кодирования : XviD 1.2.1 (UTC 2008-12-04)
    Аудио
    Идентификатор : 1
    Формат : AC-3
    Формат/Информация : Audio Coding 3
    Коммерческое название : Dolby Digital
    Идентификатор кодека : 2000
    Продолжительность : 2 ч. 7 м.
    Вид битрейта : Постоянный
    Битрейт : 384 Кбит/сек
    Каналы : 2 канала
    Channel layout : L R
    Частота : 48, 0 КГц
    Частота кадров : 31, 250 кадров/сек (1536 SPF)
    Битовая глубина : 16 бит
    Метод сжатия : С потерями
    Размер потока : 349 Мбайт (17%)
    Выравнивание : Соединение по промежуткам
    Продолжительность промежутка : 32 мс. (0, 77 видеокадр)
    ServiceKind/String : Complete Main

    Скриншоты для ознакомления



    Все одноименные релизы в Клубе Время раздачи: 24/7 (до появления первых 3-5 скачавших)

    Онлайн видео Человек-паук: Вдали от дома



    Человек-паук: Вдали от дома/Spider-Man: Far from Home (2019) WEB-DLRip [Line] [AD]
    Рейтинг →
     (голосов: 1, оценка 3/5, голосовать можно 1 раз )

    Другие торренты по теме:

  • Человек-паук: Вдали от дома / Spider-Man: Far From Home (2019) WEBRip [H.264 / 1080p] [Трейлер] [EN]
  • Человек-паук: Вдали от дома / Spider-Man: Far from Home (2019) CamRip [H.264 / 720p-LQ] [MVO] [AD]
  • Человек-паук: Вдали от дома / Spider-Man: Far from Home (2019) CamRip [H.264 / 720p-LQ] [AD]
  • Michael Giacchino - Spider-Man: Far from Home / Человек-паук: Вдали от дома (Original Motion Picture Soundtrack) (2019) [FLAC|Lossless|WEB-DL|tracks]<Soundtrack>
  • Michael Giacchino - Spider-Man: Far from Home / Человек-паук: Вдали от дома (Original Motion Picture Soundtrack) (2019) [MP3|320 кб / с]<Soundtrack>
  • Человек-паук: Вдали от дома / Spider-Man: Far from Home (2019) TS [H.264 / 720p-LQ] [AD]
  • Человек-паук: Вдали от дома / Spider-Man: Far from Home (2019) WEB-DLRip [H.264 / 1080p-LQ] [Line, AD]
  • Человек-паук: Вдали от дома / Spider-Man: Far from Home (2019) WEB-DLRip [Line] [AD]


    • Комментарии (0):

      Информация

      Информация

        Посетители, находящиеся в группе Гости, не могут оставлять комментарии в данной новости.

        ↓ Меню




        ↓ Опрос

        Вы добавили сайт в закладки?
        Да
        Нет


        Популярное

        Рим / Rome (2005-2007) BDRip [H.264 / 1080p] (сезон 1-2, серии 1-22 из 22) LostFilm, НТВ+

        (скачиваний: 320)
        Звездочет (2004) DVDRip (серии 1-12 из 12)

        (скачиваний: 184)
        Во все тяжкие / Breaking Bad (2008-2013) BDRip [H.264 / 1080p] (сезон 1-5, серии 1-62 из 62) Кубик в Кубе, LostFilm скачать через торрент бесплатно

        (скачиваний: 166)
        Дылды (2019) WEB-DL [H.264 / 1080p-LQ] (сезон 1, серии 1 из 21) (обновляемая)

        (скачиваний: 164)
        Горе от ума (1977) DVD5 (Малый Театр)

        (скачиваний: 151)
        Солдаты (2004-2013) DVDRip / SATRip (сезон 1-17 + Дембельский альбом, серии 1-633 из 633) скачать через торрент бесплатно

        (скачиваний: 133)
        След (2007-2019) SATRip (серии 1-2135)

        (скачиваний: 109)
        Властелин колец / The Lord of the Rings (2001,2002,2003) BDRip [1080p] [Extended Edition] [Трилогия]

        (скачиваний: 93)
        Кремниевая долина / Silicon Valley (2014) HDTVRip (сезон 1, серии 1-8 из 8) Кубик в Кубе скачать через торрент бесплатно

        (скачиваний: 93)
        Друзья / Friends (1994-2004) BDRip (сезон 1-10, серии 1-236 из 236) РТР скачать через торрент бесплатно

        (скачиваний: 80)