.
Авторизация | Регистрация
bitok.xyz
» » Форсаж: Хоббс и Шоу / Fast & Furious Presents: Hobbs & Shaw (2019) WEBRip [UKR / KOR Sub] [Line] торрент скачать бесплатно


    Форсаж: Хоббс и Шоу / Fast & Furious Presents: Hobbs & Shaw (2019) WEBRip [UKR / KOR Sub] [Line] торрент скачать бесплатно

    Дата: 22-09-2019, 05:00 | .torrent скачали: 1

    Форсаж: Хоббс и Шоу / Fast & Furious Presents: Hobbs & Shaw (2019) WEBRip [UKR / KOR Sub] [Line]Производство: Великобритания, США/Universal Pictures
    Жанр: Боевик, приключения
    Режиссер: Дэвид Литч

    Актеры
    Дуэйн Джонсон, Джейсон Стэйтем, Идрис Эльба, Ванесса Кирби, Хелен Миррен, Эйса Гонсалес, Эдди Марсан, Элиана Суа, Клифф Кёртис, Лори Пеленис Туисано

    Описание

    Люк Хоббс — американский элитный спецагент, он любит удобную спортивную одежду, большие пикапы и здоровое питание. Декард Шоу — британский пижон, бывший сотрудник разведки, предпочитает дорогие костюмы, спортивные авто и длинноногих красоток.
    Эти двое ненавидят друг друга. Но если кто-то угрожает их семьям, они готовы пойти на все. Даже на работу в команде.

    Возраст: 12+ (зрителям, достигшим 12 лет)
    Рейтинг MPAA: PG-13 (детям до 13 лет просмотр нежелателен)
    Дата мировой премьеры: 31 июля 2019
    Дата премьеры в России: 1 августа 2019

    Продолжительность: 02: 09: 16
    Качество видео: WEBRip
    Перевод : Отсутствует
    Язык озвучки : Украинский
    Субтитры: Корейские (вшитые, неотключаемые)
    Видео: Xvid, 720x304, 1423 kbps
    Аудио : AC3, 2 ch, 192 Kbps | Украинский дубляж (Line)Общее
    Полное имя : Fast and Furious Presents.Hobbs and Shaw.(2019).WEBRip.UKR.avi
    Формат : AVI
    Формат/Информация : Audio Video Interleave
    Размер файла : 1, 47 Гбайт
    Продолжительность : 2 ч. 9 м.
    Общий поток : 1627 Кбит/сек
    Библиотека кодирования : VirtualDub build 35491/release
    Видео
    Идентификатор : 0
    Формат : MPEG-4 Visual
    Профиль формата : Advanced Simple@L5
    Настройки формата : BVOP1
    Параметр BVOP формата : 1
    Параметр QPel формата : Нет
    Параметр GMC формата : Без точки перехода
    Параметр матрицы формата : Default (MPEG)
    Идентификатор кодека : XVID
    Идентификатор кодека/Подсказка : XviD
    Продолжительность : 2 ч. 9 м.
    Битрейт : 1423 Кбит/сек
    Ширина : 730 пикселей
    Высота : 304 пикселя
    Соотношение сторон : 2, 40: 1
    Частота кадров : 30, 000 кадров/сек
    Цветовое пространство : YUV
    Субдискретизация насыщенности : 4: 2: 0
    Битовая глубина : 8 бит
    Тип развёртки : Прогрессивная
    Метод сжатия : С потерями
    Бит/(Пиксели*Кадры) : 0.214
    Размер потока : 1, 29 Гбайт (87%)
    Библиотека кодирования : XviD 67
    Аудио
    Идентификатор : 1
    Формат : AC-3
    Формат/Информация : Audio Coding 3
    Коммерческое название : Dolby Digital
    Идентификатор кодека : 2000
    Продолжительность : 2 ч. 9 м.
    Вид битрейта : Постоянный
    Битрейт : 192 Кбит/сек
    Каналы : 2 канала
    Channel layout : L R
    Частота : 48, 0 КГц
    Частота кадров : 31, 250 кадров/сек (1536 SPF)
    Битовая глубина : 16 бит
    Метод сжатия : С потерями
    Размер потока : 178 Мбайт (12%)
    Выравнивание : Соединение по промежуткам
    Продолжительность промежутка : 33 мс. (1, 00 видеокадр)
    Время предзагрузки промежутка : 512 мс.
    ServiceKind/String : Complete Main
    Скриншоты для ознакомления


    Все одноименные релизы в Клубе Время раздачи: 24/7 (до появления первых 3-5 скачавших)

    Онлайн видео Форсаж: Хоббс и Шоу



    Форсаж: Хоббс и Шоу/Fast & Furious Presents: Hobbs & Shaw (2019) WEBRip [UKR/KOR Sub] [Line]
    Рейтинг →
     (голосов: 1, оценка 3/5, голосовать можно 1 раз )

    Другие торренты по теме:

  • Форсаж: Хоббс и Шоу / Fast & Furious Presents: Hobbs & Shaw (2019) CAMRip [H.264 / 720p-LQ] [AD]
  • Форсаж: Хоббс и Шоу / Fast & Furious Presents: Hobbs & Shaw (2019) CAMRip [AD]
  • Форсаж: Хоббс и Шоу / Fast & Furious Presents: Hobbs & Shaw (2019) WEBRip [H.264 / 1080p] [EN / KOR Sub] [PR]
  • Форсаж: Хоббс и Шоу / Fast & Furious Presents: Hobbs & Shaw (2019) WEBRip [H.264] [UKR, EN / KOR Sub] [Line]
  • Форсаж: Хоббс и Шоу / Fast & Furious Presents: Hobbs & Shaw (2019) WEBRip [H.264 / 1080p-LQ] [UKR, EN / KOR Sub] [Line]
  • Форсаж: Хоббс и Шоу / Fast & Furious Presents: Hobbs & Shaw (2019) WEBRip [H.264 / 1080p-LQ] [Line] [AD]
  • Форсаж: Хоббс и Шоу / Fast & Furious Presents: Hobbs & Shaw (2019) WEBRip [Line] [AD]
  • Форсаж: Хоббс и Шоу / Fast & Furious Presents: Hobbs & Shaw (2019) WEBRip [H.264 / 720p-LQ] [Line] [AD]


    • Комментарии (0):

      Информация

      Информация

        Посетители, находящиеся в группе Гости, не могут оставлять комментарии в данной новости.

        ↓ Меню




        ↓ Опрос

        Вы добавили сайт в закладки?
        Да
        Нет


        Популярное