ВАЖНО! Сайт скоро заблокируют! Подписывайся на наш канал в Telegram https://t.me/torrentok и получи доступ к торрентам без ограничений!
.
Авторизация | Регистрация
bitok.xyz
Торрент скачать бесплатно Фильмы торрент скачать Район №9 / District 9 (2009) BDRip торрент скачать бесплатно


    Район №9 / District 9 (2009) BDRip торрент скачать бесплатно

    Дата: 22-09-2019, 05:00 | .torrent скачали: 0

    Район №9 / District 9 (2009) BDRipПроизводство: ЮАР, США, Новая Зеландия, Канада/TriStar Pictures, Block/Hanson, WingNut Films
    Жанр: фантастика, триллер, боевик, драма
    Режиссер: Нил Бломкамп

    Актеры
    Шарлто Копли, Джейсон Коуп, Натали Болтт, Сильвен Страйк, Элизабет Мкандави, Джон Самнер, Уильям Аллен Янг, Грег Мелвилл-Смит, Ник Блейк, Морена Буса Сесатса

    Описание

    Более 20 лет назад инопланетяне установили первый контакт с Землей. Люди были готовы ко всему — от враждебного вторжения до невероятного технологического прорыва. Ни того, ни другого не произошло. Пришельцы оказались беженцами со своей собственной планеты, и пока мировое сообщество решало, что с ними делать дальше, для них был организован временный лагерь в южноафриканском Районе N9.

    Возраст: 16+ (зрителям, достигшим 16 лет)
    Рейтинг MPAA: R (лицам до 17 лет обязательно присутствие взрослого)
    Продолжительность: 01: 52: 15
    Качество видео: BDRip
    Перевод: Дублированный, авторский
    Субтитры: Русские (полные), русские (вшитые на надписи, речь инопланетян), английские (полные) - отдельно
    Видео: XviD, 720x384, ~1874 Kbps
    Аудио #1: АС3, 6 ch, 448 Kbps - Русский (Дублированный)
    Аудио #2: АС3, 6 ch, 448 Kbps - Английский (Оригинал)
    Аудио #3: АС3, 6 ch, 448 Kbps - Русский (Авторский одноголосый, Андрей Гаврилов) - отдельно
    Аудио #4: АС3, 6 ch, 448 Kbps - Русский (Авторский одноголосый, Василий Горчаков) - отдельно
    Аудио #5: АС3, 6 ch, 448 Kbps - Русский (Авторский одноголосый, Михаил Яроцкий) - отдельно
    Аудио #6: АС3, 6 ch, 448 Kbps - Русский (Авторский одноголосый, Юрий Сербин) - отдельноGeneral
    Complete name : D: 3.ТоррентыRayon.№9.2009.BDRipRayon.№9.2009.BDRip.avi
    Format : AVI
    Format/Info : Audio Video Interleave
    Format profile : OpenDML
    File size : 2.19 GiB
    Duration : 1h 52mn
    Overall bit rate : 2 788 Kbps
    Writing application : VirtualDubMod 1.5.10.3 (build 2550/release)
    Writing library : VirtualDubMod build 2550/release
    Video
    ID : 0
    Format : MPEG-4 Visual
    Format profile : Advanced Simple@L5
    Format settings, BVOP : 1
    Format settings, QPel : No
    Format settings, GMC : No warppoints
    Format settings, Matrix : Default (MPEG)
    Codec ID : XVID
    Codec ID/Hint : XviD
    Duration : 1h 52mn
    Bit rate : 1 874 Kbps
    Width : 720 pixels
    Height : 384 pixels
    Display aspect ratio : 1.85: 1
    Frame rate : 23.976 fps
    Color space : YUV
    Chroma subsampling : 4: 2: 0
    Bit depth : 8 bits
    Scan type : Progressive
    Compression mode : Lossy
    Bits/(Pixel*Frame) : 0.283
    Stream size : 1.47 GiB (67%)
    Writing library : XviD 1.2.1 (UTC 2008-12-04)
    Audio #1
    ID : 1
    Format : AC-3
    Format/Info : Audio Coding 3
    Mode extension : CM (complete main)
    Format settings, Endianness : Big
    Codec ID : 2000
    Duration : 1h 52mn
    Bit rate mode : Constant
    Bit rate : 448 Kbps
    Channel(s) : 6 channels
    Channel positions : Front: L C R, Side: L R, LFE
    Sampling rate : 48.0 KHz
    Bit depth : 16 bits
    Compression mode : Lossy
    Stream size : 360 MiB (16%)
    Alignment : Split accross interleaves
    Interleave, duration : 42 ms (1.00 video frame)
    Interleave, preload duration : 500 ms
    Audio #2
    ID : 2
    Format : AC-3
    Format/Info : Audio Coding 3
    Mode extension : CM (complete main)
    Format settings, Endianness : Big
    Codec ID : 2000
    Duration : 1h 52mn
    Bit rate mode : Constant
    Bit rate : 448 Kbps
    Channel(s) : 6 channels
    Channel positions : Front: L C R, Side: L R, LFE
    Sampling rate : 48.0 KHz
    Bit depth : 16 bits
    Compression mode : Lossy
    Stream size : 360 MiB (16%)
    Alignment : Split accross interleaves
    Interleave, duration : 42 ms (1.00 video frame)
    Interleave, preload duration : 500 ms
    _____________________________________________________________________________________
    Complete name : D: 3.ТоррентыRayon.№9.2009.BDRipRayon.№9.2009.BDRip.Gavrilov.ac3
    Format : AC-3
    Format/Info : Audio Coding 3
    File size : 360 MiB
    Duration : 1h 52mn
    Overall bit rate mode : Constant
    Overall bit rate : 448 Kbps
    Audio
    Format : AC-3
    Format/Info : Audio Coding 3
    Mode extension : CM (complete main)
    Format settings, Endianness : Big
    Duration : 1h 52mn
    Bit rate mode : Constant
    Bit rate : 448 Kbps
    Channel(s) : 6 channels
    Channel positions : Front: L C R, Side: L R, LFE
    Sampling rate : 48.0 KHz
    Bit depth : 16 bits
    Compression mode : Lossy
    Stream size : 360 MiB (100%)
    --------------------------------------------------------
    Complete name : D: 3.ТоррентыRayon.№9.2009.BDRipRayon.№9.2009.BDRip.Gorchakov.ac3
    Format : AC-3
    Format/Info : Audio Coding 3
    File size : 360 MiB
    Duration : 1h 52mn
    Overall bit rate mode : Constant
    Overall bit rate : 448 Kbps
    Audio
    Format : AC-3
    Format/Info : Audio Coding 3
    Mode extension : CM (complete main)
    Format settings, Endianness : Big
    Duration : 1h 52mn
    Bit rate mode : Constant
    Bit rate : 448 Kbps
    Channel(s) : 6 channels
    Channel positions : Front: L C R, Side: L R, LFE
    Sampling rate : 48.0 KHz
    Bit depth : 16 bits
    Compression mode : Lossy
    Stream size : 360 MiB (100%)
    --------------------------------------------------------
    Complete name : D: 3.ТоррентыRayon.№9.2009.BDRipRayon.№9.2009.BDRip.Kyberpunk.ac3
    Format : AC-3
    Format/Info : Audio Coding 3
    File size : 360 MiB
    Duration : 1h 52mn
    Overall bit rate mode : Constant
    Overall bit rate : 448 Kbps
    Audio
    Format : AC-3
    Format/Info : Audio Coding 3
    Mode extension : CM (complete main)
    Format settings, Endianness : Big
    Duration : 1h 52mn
    Bit rate mode : Constant
    Bit rate : 448 Kbps
    Channel(s) : 6 channels
    Channel positions : Front: L C R, Side: L R, LFE
    Sampling rate : 48.0 KHz
    Bit depth : 16 bits
    Compression mode : Lossy
    Stream size : 360 MiB (100%)
    --------------------------------------------------------
    Complete name : D: 3.ТоррентыRayon.№9.2009.BDRipRayon.№9.2009.BDRip.Serbin.ac3
    Format : AC-3
    Format/Info : Audio Coding 3
    File size : 360 MiB
    Duration : 1h 52mn
    Overall bit rate mode : Constant
    Overall bit rate : 448 Kbps
    Audio
    Format : AC-3
    Format/Info : Audio Coding 3
    Mode extension : CM (complete main)
    Format settings, Endianness : Big
    Duration : 1h 52mn
    Bit rate mode : Constant
    Bit rate : 448 Kbps
    Channel(s) : 6 channels
    Channel positions : Front: L C R, Side: L R, LFE
    Sampling rate : 48.0 KHz
    Bit depth : 16 bits
    Compression mode : Lossy
    Stream size : 360 MiB (100%)
    Внимание: При просмотре фильма в переводеМихаила Яроцкого (Kyberpunk) подключаем субтитры (Kyberpunk)
    Скриншоты для ознакомления



    Все одноименные релизы в Клубе
    Время раздачи: с 9-00 до 21-00 (до появления первых 3-5 скачавших)

    Онлайн видео Район №9


    Район №9 / District 9 (2009) BDRip торрент скачать бесплатно
    Рейтинг →
     (голосов: 1, оценка 4/5, голосовать можно 1 раз )

    Другие торренты по теме:

  • Clinton Shorter - Район №9 / District 9 (2009) [AAC|WEB-DL|256 Kbps]<Score>
  • Район №9 / District 9 (2009) BDRip [H.264 / 1080p-LQ]
  • Район С-11 / District C-11 (2017) WEB-DLRip [MVO] [AD]
  • Район №9 / District 9 (2009) HDRip [H.264] [MP4|1280x692]
  • Район №9 / District 9 (2009) HDRip [H.264] [MP4|1920x1038]
  • Район №9 / District 9 (2009) UHD WEB-DL [H.265 / 2160p-LQ] [4K, HDR, 10-bit]
  • Район №9 / District 9 (2009) BDRip [H.265 / 1080p] [10-bit]


    • Комментарии (0):

      Информация

      Информация

        Посетители, находящиеся в группе Гости, не могут оставлять комментарии в данной новости.

        ↓ Меню




        Популярное