.
Авторизация | Регистрация
bitok.xyz
» » Капкан / Crawl (2019) WEB-DLRip [AD] торрент скачать бесплатно


    Капкан / Crawl (2019) WEB-DLRip [AD] торрент скачать бесплатно

    Дата: 28-09-2019, 05:00 | .torrent скачали: 128

    Капкан / Crawl (2019) WEB-DLRip [AD]Производство: США, Сербия, Канада/Paramount Pictures, Raimi Productions
    Жанр: Ужасы, боевик, триллер, драма, приключения
    Режиссер: Александр Ажа

    Актеры
    Кая Скоделарио, Бэрри Пеппер, Морфидд Кларк, Росс Андерсон, Хосе Пальма, Джордж Сомнер, Энсон Бун, Эми Меткалф, Тина Прибичевич, Срна Васильевич

    Описание

    У пловчихи Хэйли день не задался: сначала она проиграла заплыв, уступив доли секунды, а затем на Флориду обрушивается ураган 5-й категории. Но что ещё хуже, отец не выходит на связь, поэтому Хэйли отправляется в уже эвакуированную зону и находит его тяжелораненым и без сознания в подвале их старого дома. Пытаясь вытащить отца из сырого подвального помещения, девушка обнаруживает, что тут засел огромный агрессивный аллигатор. Неудачный день продолжается — вода прибывает, помощи ждать неоткуда, а зубастая рептилия готова напасть при любой возможности.

    Возраст: 18+ (зрителям, достигшим 18 лет. запрещено для детей)
    Рейтинг MPAA: R (лицам до 17 лет обязательно присутствие взрослого)
    Дата мировой премьеры: 10 июля 2019
    Дата премьеры в России: 22 августа 2019

    Продолжительность: 01: 26: 29
    Качество видео: WEB-DLRip
    Перевод: Дублированный
    Субтитры: Отсутствуют
    Реклама: Присутствует баннер.
    Видео: XviD, 720x304, ~1815 Kbps
    Аудио: AC-3, 2 ch, 384 Kbps
    Общее
    Полное имя : D: NNMКапканCrawl.2019.WEB-DLRip.avi
    Формат : AVI
    Формат/Информация : Audio Video Interleave
    Профиль формата : OpenDML
    Размер файла : 1, 34 Гбайт
    Продолжительность : 1 ч. 26 м.
    Общий поток : 2212 Кбит/сек
    Видео
    Идентификатор : 0
    Формат : MPEG-4 Visual
    Профиль формата : Advanced Simple@L5
    Настройки формата : BVOP2/Custom Matrix
    Параметр BVOP формата : 2
    Параметр QPel формата : Нет
    Параметр GMC формата : Без точки перехода
    Параметр матрицы формата : Выборочная
    Идентификатор кодека : XVID
    Идентификатор кодека/Подсказка : XviD
    Продолжительность : 1 ч. 26 м.
    Битрейт : 1815 Кбит/сек
    Ширина : 720 пикселей
    Высота : 304 пикселя
    Соотношение сторон : 2, 35: 1
    Частота кадров : 23, 976 (24000/1001) кадра/сек
    Цветовое пространство : YUV
    Субдискретизация насыщенности : 4: 2: 0
    Битовая глубина : 8 бит
    Тип развёртки : Прогрессивная
    Метод сжатия : С потерями
    Бит/(Пиксели*Кадры) : 0.346
    Размер потока : 1, 10 Гбайт (82%)
    Библиотека кодирования : XviD 1.2.1 (UTC 2008-12-04)
    Аудио
    Идентификатор : 1
    Формат : AC-3
    Формат/Информация : Audio Coding 3
    Коммерческое название : Dolby Digital
    Идентификатор кодека : 2000
    Продолжительность : 1 ч. 26 м.
    Вид битрейта : Постоянный
    Битрейт : 384 Кбит/сек
    Каналы : 2 канала
    ChannelLayout : L R
    Частота : 48, 0 КГц
    Частота кадров : 31, 250 кадров/сек (1536 SPF)
    Битовая глубина : 16 бит
    Метод сжатия : С потерями
    Размер потока : 238 Мбайт (17%)
    Выравнивание : Соединение по промежуткам
    Продолжительность промежутка : 32 мс. (0, 77 видеокадр)
    ServiceKind/String : Complete Main

    Скриншоты для ознакомления



    Все одноименные релизы в Клубе Время раздачи: 24/7 (до появления первых 3-5 скачавших)

    Онлайн видео Капкан



    Капкан/Crawl (2019) WEB-DLRip [AD]
    Рейтинг →
     (голосов: 1, оценка 5/5, голосовать можно 1 раз )

    Другие торренты по теме:

  • Капкан / Crawl (2019) WEB-DLRip [H.264 / 1080p-LQ] [AD]
  • Капкан / Crawl (2019) BDRip [H.264 / 1080p] [EN / RU, EN Sub] [PR]
  • Капкан / Crawl (2019) BDRip [H.264 / 1080p] [VO]
  • Капкан / Crawl (2019) BDRemux [H.264 / 1080p] [VO]
  • Капкан / Crawl (2019) BDRip [H.264 / 720p] [VO]
  • Капкан / Crawl (2019) BDRip [H.264 / 1080p]
  • Капкан / Crawl (2019) BDRemux [H.264 / 1080p]
  • Капкан / Crawl (2019) BDRip [H.264 / 720p]


    • Комментарии (0):

      Информация

      Информация

        Посетители, находящиеся в группе Гости, не могут оставлять комментарии в данной новости.

        ↓ Меню




        ↓ Опрос

        Вы добавили сайт в закладки?
        Да
        Нет


        Популярное

        След (2007-2019) SATRip (серии 1-2135)

        (скачиваний: 53)
        Тайны следствия (2001) WEBRip (сезон 1, серии 1-16 из 16)

        (скачиваний: 47)
        Кремниевая долина / Silicon Valley (2014) HDTVRip (сезон 1, серии 1-8 из 8) Кубик в Кубе скачать через торрент бесплатно

        (скачиваний: 47)
        Солдаты (2004-2013) DVDRip / SATRip (сезон 1-17 + Дембельский альбом, серии 1-633 из 633) скачать через торрент бесплатно

        (скачиваний: 41)
        Бесстыжие / Shameless (US) (2011–2014) BDRip, HDTVRip [720p] (Сезон 1-4, серии 1-48 из 48) (AlexFilm) скачать через торрент бесплатно

        (скачиваний: 35)
        Друзья / Friends (1994-2004) BDRip (сезон 1-10, серии 1-236 из 236) РТР скачать через торрент бесплатно

        (скачиваний: 35)
        Рим / Rome (2005-2007) BDRip [H.264 / 1080p] (сезон 1-2, серии 1-22 из 22) LostFilm, НТВ+

        (скачиваний: 34)
        Россия молодая (1982) DVDRip [H.264] (серии 1-9 из 9) скачать через торрент бесплатно

        (скачиваний: 29)
        Бесстыжие / Shameless (US) (2011) BDRemux (сезон 1, серии 1-12 из 12) AlexFilm

        (скачиваний: 26)
        Секс ради выживания / Three (2005) WEB-DLRip [H.264]

        (скачиваний: 25)