.
Авторизация | Регистрация

bitok.xyz

» » Анатомия страсти / Анатомия Грей / Greys Anatomy (2019) WEB-Rip (сезон 16, серии 1 из 25) Baibako [AD] торрент скачать бесплатно


    Анатомия страсти / Анатомия Грей / Greys Anatomy (2019) WEB-Rip (сезон 16, серии 1 из 25) Baibako [AD] торрент скачать бесплатно

    Дата: 3-10-2019, 05:00 | .torrent скачали: 0

    Анатомия страсти / Анатомия Грей / Greys Anatomy (2019) WEB-Rip (сезон 16, серии 1 из 25) Baibako [AD]Производство: США, ShondaLand, Mark Gordon Company, The Touchstone Television, ABC Studios
    Жанр: драма, мелодрама
    Режиссер: Роб Корн

    Актеры
    Эллен Помпео, Джастин Чэмберс, Сара Рамирез, Чандра Уилсон, Джеймс Пикенс мл., Кевин МакКидд, Мелисса Джордж, Джессика Кэпшоу и др.

    Описание

    Анатомия страсти – это захватывающий своим сюжетом, драматичностью и не ординарностью сериал. В фильме описывается жизнь молодых хирургов, которые посвящают свою жизнь работе в клинике, операциям и пациентам. Но так же не забывают про личную жизнь, которую они с лёгкостью устраивают на рабочем месте. Сериал показывает повседневную жизнь простых врачей, их проблемы, разочарования, неудачи и то, как друзья помогают справиться с навалившимися трудностями на работе и в личной жизни. Каждая серия - это история наполненная интересными открытиями в хирургии, жизненными историями взаимопониманием между коллегами.

    Возраст: 16+ (зрителям, достигшим 16 лет)
    Продолжительность: ~00: 44: 00 серия
    Качество видео: WEB-Rip
    Перевод: Многоголосый закадровый, любительский - Baibako
    Субтитры: английские
    Реклама: присутствуют видео вставки рекламы
    Видео: XVID, 720x400 (16: 9), ~1 497 kbps
    Аудио 1: MP3, 2 ch, 192 kbps - русский, многоголосый закадровый
    Аудио 2: MP3, 2 ch, 192 kbps - английский
    General
    Complete name : E: фильмыGreys.Anatomy.s16.WEBRip.XviD.Rus.Eng.BaibaKo.tvGreys.Anatomy.s16e01.WEBRip.XviD.Rus.Eng.BaibaKo.tv.avi
    Format : AVI
    Format/Info : Audio Video Interleave
    File size : 594 MiB
    Duration : 43 min 40 s
    Overall bit rate : 1 901 kb/s
    Writing application : Lavf58.25.100
    Video
    ID : 0
    Format : MPEG-4 Visual
    Format profile : Advanced Simple@L5
    Format settings, BVOP : 2
    Format settings, QPel : No
    Format settings, GMC : No warppoints
    Format settings, Matrix : Default (H.263)
    Codec ID : XVID
    Codec ID/Hint : XviD
    Duration : 43 min 40 s
    Bit rate : 1 497 kb/s
    Width : 720 pixels
    Height : 400 pixels
    Display aspect ratio : 16: 9
    Frame rate : 23.976 (24000/1001) FPS
    Color space : YUV
    Chroma subsampling : 4: 2: 0
    Bit depth : 8 bits
    Scan type : Progressive
    Compression mode : Lossy
    Bits/(Pixel*Frame) : 0.217
    Stream size : 467 MiB (79%)
    Writing library : XviD 67
    Audio #1
    ID : 1
    Format : MPEG Audio
    Format version : Version 1
    Format profile : Layer 3
    Mode : Joint stereo
    Mode extension : MS Stereo
    Codec ID : 55
    Codec ID/Hint : MP3
    Duration : 43 min 40 s
    Bit rate mode : Constant
    Bit rate : 192 kb/s
    Channel(s) : 2 channels
    Sampling rate : 48.0 kHz
    Compression mode : Lossy
    Stream size : 60.0 MiB (10%)
    Alignment : Aligned on interleaves
    Interleave, duration : 24 ms (0.58 video frame)
    Interleave, preload duratio : 24 ms
    Writing library : LAME3.100ЄЄЄЄЄЄЄЄЄЄЄ
    Audio #2
    ID : 2
    Format : MPEG Audio
    Format version : Version 1
    Format profile : Layer 3
    Mode : Joint stereo
    Mode extension : MS Stereo
    Codec ID : 55
    Codec ID/Hint : MP3
    Duration : 43 min 40 s
    Bit rate mode : Constant
    Bit rate : 192 kb/s
    Channel(s) : 2 channels
    Sampling rate : 48.0 kHz
    Compression mode : Lossy
    Stream size : 60.0 MiB (10%)
    Alignment : Aligned on interleaves
    Interleave, duration : 24 ms (0.58 video frame)
    Interleave, preload duratio : 24 ms
    Writing library : LAME3.100UUUяяяяяяяп


    Онлайн видео Анатомия страсти



    Анатомия страсти/Анатомия Грей/Greys Anatomy (2019) WEB-Rip (сезон 16, серии 1 из 25) Baibako [AD]
    Рейтинг →
     (голосов: 1, оценка 4/5, голосовать можно 1 раз )

    Другие торренты по теме:

  • Анатомия страсти / Анатомия Грей / Greys Anatomy (2014) WEB-DL [H.264 / 1080p-LQ] (Сезон 11, 1-2 серии из 24) [EN | Rus Sub] (Обновляемая)
  • Анатомия страсти / Анатомия Грей / Greys Anatomy (2014) HDTVRip (сезон 11, серия 1 из ) [Soul Studio] (Обновляемая)
  • Анатомия страсти / Анатомия Грей / Greys Anatomy (2014) HDTVRip [сезон 11, серии 1 из 24] Fox Life (Обновляемая)
  • Анатомия страсти / Анатомия Грей / Greys Anatomy (2014) WEB-DL [H.264 / 720p] (сезон 11, серии 1-10 из 24) (обновляемая) скачать через торрент бесплатно
  • Анатомия страсти / Анатомия Грей / Greys Anatomy (2014) HDTV [H.264 / 1080i-LQ] (сезон 11, серии 1-15 из 24) Fox (обновляемая) скачать через торрент бесплатно
  • Анатомия страсти / Анатомия Грей / Greys Anatomy (2015) WEB-DLRip (сезон 12, серии 1-4 из 24) BaibaKo (обновляемая) скачать через торрент бесплатно
  • Анатомия страсти / Анатомия Грей / Greys Anatomy (2015) WEB-DL [H.264 / 720p-LQ] (сезон 12, серии 1-4 из 24) BaibaKo (обновляемая) скачать через торрент бесплатно
  • Анатомия страсти / Анатомия Грей / Greys Anatomy (2016) WEB-DL [H.264 / 720p-LQ] (сезон 13, серии 1-8 из 18) Fox Life (обновляемая)


    • Комментарии (0):

      Информация

      Информация

        Посетители, находящиеся в группе Гости, не могут оставлять комментарии в данной новости.

        ↓ Меню




        ↓ Опрос

        Вы добавили сайт в закладки?
        Да
        Нет


        Популярное