.
Авторизация | Регистрация

bitok.xyz

» » Гость на свадьбе / The Wedding Guest (2018) BDRip торрент скачать бесплатно


    Гость на свадьбе / The Wedding Guest (2018) BDRip торрент скачать бесплатно

    Дата: 17-10-2019, 05:00 | .torrent скачали: 0

    Гость на свадьбе / The Wedding Guest (2018) BDRipПроизводство: Великобритания/Riverstone Pictures, Revolution Films, Ingenious Media
    Жанр: Триллер
    Режиссер: Майкл Уинтерботтом

    Актеры
    Дев Патель, Радхика Апте, Джим Сарбх, Хэриш Ханна, Ниш Натвани, Meherbaan Singh, Sidhu Manpreet

    Описание

    Точно спланированная операция, призванная спасти девушку от нежелательной свадьбы, оборачивается гонкой на перегонки со временем, где каждый неверный шаг может стоит жизни.

    Рейтинг MPAA: R (лицам до 17 лет обязательно присутствие взрослого)
    Дата мировой премьеры: 8 сентября 2018
    Продолжительность: 01: 40: 08
    Качество видео: BDRip
    Перевод: Многоголосый профессиональный (iTunes )
    Субтитры: Отсутствуют
    Видео: Xvid, 720х304, ~1769 Kbps
    Аудио: AC3, 6 ch, 384 Kbps
    Общее
    Полное имя : C: UsersSTOTIKDownloadsThe.Wedding.Guest.2018.BDRip.1.46Gb.MegaPeer.avi
    Формат : AVI
    Формат/Информация : Audio Video Interleave
    Размер файла : 1, 46 Гбайт
    Продолжительность : 1 ч. 36 м.
    Общий поток : 2163 Кбит/сек
    Программа кодирования : VirtualDubMod 1.5.10.3 |www.virtualdub-fr.org|| (build 2550/release)
    Библиотека кодирования : VirtualDubMod build 2550/release
    Видео
    Идентификатор : 0
    Формат : MPEG-4 Visual
    Профиль формата : Advanced Simple@L5
    Настройки формата : BVOP1/Custom Matrix
    Параметр BVOP формата : 1
    Параметр QPel формата : Нет
    Параметр GMC формата : Без точки перехода
    Параметр матрицы формата : Выборочная
    Идентификатор кодека : XVID
    Идентификатор кодека/Подсказка : XviD
    Продолжительность : 1 ч. 36 м.
    Битрейт : 1770 Кбит/сек
    Ширина : 720 пикселей
    Высота : 304 пикселя
    Соотношение сторон : 2, 35: 1
    Частота кадров : 23, 976 (24000/1001) кадра/сек
    Цветовое пространство : YUV
    Субдискретизация насыщенности : 4: 2: 0
    Битовая глубина : 8 бит
    Тип развёртки : Прогрессивная
    Метод сжатия : С потерями
    Бит/(Пиксели*Кадры) : 0.337
    Размер потока : 1, 19 Гбайт (82%)
    Библиотека кодирования : XviD 73
    Аудио
    Идентификатор : 1
    Формат : AC-3
    Формат/Информация : Audio Coding 3
    Коммерческое название : Dolby Digital
    Идентификатор кодека : 2000
    Продолжительность : 1 ч. 36 м.
    Вид битрейта : Постоянный
    Битрейт : 384 Кбит/сек
    Каналы : 6 каналов
    ChannelLayout : L R C LFE Ls Rs
    Частота : 48, 0 КГц
    Частота кадров : 31, 250 кадров/сек (1536 SPF)
    Битовая глубина : 16 бит
    Метод сжатия : С потерями
    Размер потока : 265 Мбайт (18%)
    Выравнивание : Разделение по промежуткам
    Продолжительность промежутка : 42 мс. (1, 00 видеокадр)
    Время предзагрузки промежутка : 500 мс.
    ServiceKind/String : Complete Main

    Скриншоты для ознакомления



    Все одноименные релизы в Клубе
    Время раздачи: 24/7 (до появления первых 3-5 скачавших)

    Онлайн видео Гость на свадьбе



    Гость на свадьбе/The Wedding Guest (2018) BDRip
    Рейтинг →
     (голосов: 1, оценка 3/5, голосовать можно 1 раз )

    Другие торренты по теме:

  • Гость на свадьбе / The Wedding Guest (2018) WEB-DLRip
  • Гость на свадьбе / The Wedding Guest (2018) BDRemux [H.264 / 1080p]
  • Гость на свадьбе / The Wedding Guest (2018) BDRip [H.264 / 1080p]
  • Гость на свадьбе / The Wedding Guest (2018) DVD9


    • Комментарии (0):

      Информация

      Информация

        Посетители, находящиеся в группе Гости, не могут оставлять комментарии в данной новости.

        ↓ Меню




        ↓ Опрос

        Вы добавили сайт в закладки?
        Да
        Нет


        Популярное