.
Авторизация | Регистрация

bitok.xyz

» » Форсаж: Хоббс и Шоу / Fast & Furious Presents: Hobbs & Shaw (2019) WEB-DL [H.265 / 2160p] [4K, SDR, 10-bit] торрент скачать бесплатно


    Форсаж: Хоббс и Шоу / Fast & Furious Presents: Hobbs & Shaw (2019) WEB-DL [H.265 / 2160p] [4K, SDR, 10-bit] торрент скачать бесплатно

    Дата: 17-10-2019, 05:00 | .torrent скачали: 2

    Форсаж: Хоббс и Шоу / Fast & Furious Presents: Hobbs & Shaw (2019) WEB-DL [H.265 / 2160p] [4K, SDR, 10-bit]Производство: Великобритания, США/Universal Pictures
    Жанр: Боевик, приключения
    Режиссер: Дэвид Литч

    Актеры
    Дуэйн Джонсон, Джейсон Стэйтем, Ванесса Кирби, Идрис Эльба, Эдди Марсан, Хелен Миррен, Райан Рейнольдс, Эйса Гонсалес, Клифф Кёртис, Элиана Суа

    Описание

    Люк Хоббс — американский элитный спецагент, он любит удобную спортивную одежду, большие пикапы и здоровое питание. Декард Шоу — британский пижон, бывший сотрудник разведки, предпочитает дорогие костюмы, спортивные авто и длинноногих красоток.
    Эти двое ненавидят друг друга. Но если кто-то угрожает их семьям, они готовы пойти на все. Даже на работу в команде.

    Возраст: 12+ (зрителям, достигшим 12 лет)
    Рейтинг MPAA: PG-13 (детям до 13 лет просмотр нежелателен)
    Дата мировой премьеры: 31 июля 2019
    Дата российской премьеры: 1 августа 2019
    Релиз от: Селезень
    Продолжительность: 02: 15: 51
    Качество видео: WEB-DL (2160p SDR)
    Перевод: Дублированный (iTunes )
    Субтитры: Английские
    Видео: HEVC/H.265, 3840x2160, ~24, 9 Mbps
    Аудио #1: AC3, 6 ch, 384 Kbps | Русский (DUB)
    Аудио #2: E-AC3, 6 ch, 256 Kbps | Английский
    General
    Unique ID : 168016236856294442009298579677604512379 (0x7E66C00B2C2C38ADD96EC4376D88827B)
    Complete name : D: Video111Fast.and.Furious.Presents.Hobbs.and.Shaw.2019.WEB-DL.2160p.SDR.seleZen.mkv
    Format : Matroska
    Format version : Version 4
    File size : 24.3 GiB
    Duration : 2 h 16 min
    Overall bit rate : 25.5 Mb/s
    Movie name : Fast and Furious Presents Hobbs and Shaw 2019 from селезень
    Encoded date : UTC 2019-10-16 03: 12: 17
    Writing application : mkvmerge v37.0.0 (\'Leave It\') 64-bit
    Writing library : libebml v1.3.9 + libmatroska v1.5.2
    Video
    ID : 1
    Format : HEVC
    Format/Info : High Efficiency Video Coding
    Format profile : Main 10@L5@High
    Codec ID : V_MPEGH/ISO/HEVC
    Duration : 2 h 16 min
    Bit rate : 24.9 Mb/s
    Width : 3 840 pixels
    Height : 2 160 pixels
    Display aspect ratio : 16: 9
    Frame rate mode : Constant
    Frame rate : 23.976 (24000/1001) FPS
    Color space : YUV
    Chroma subsampling : 4: 2: 0 (Type 2)
    Bit depth : 10 bits
    Bits/(Pixel*Frame) : 0.125
    Stream size : 23.7 GiB (97%)
    Language : English
    Default : Yes
    Forced : No
    Color range : Limited
    Color primaries : BT.709
    Transfer characteristics : BT.709
    Matrix coefficients : BT.709
    Audio #1
    ID : 2
    Format : AC-3
    Format/Info : Audio Coding 3
    Commercial name : Dolby Digital
    Codec ID : A_AC3
    Duration : 2 h 15 min
    Bit rate mode : Constant
    Bit rate : 384 kb/s
    Channel(s) : 6 channels
    Channel layout : L R C LFE Ls Rs
    Sampling rate : 48.0 kHz
    Frame rate : 31.250 FPS (1536 SPF)
    Bit depth : 16 bits
    Compression mode : Lossy
    Stream size : 373 MiB (1%)
    Title : iTunes
    Language : Russian
    Service kind : Complete Main
    Default : Yes
    Forced : Yes
    Audio #2
    ID : 3
    Format : E-AC-3
    Format/Info : Enhanced AC-3
    Commercial name : Dolby Digital Plus
    Codec ID : A_EAC3
    Duration : 2 h 16 min
    Bit rate mode : Constant
    Bit rate : 256 kb/s
    Channel(s) : 6 channels
    Channel layout : L R C LFE Ls Rs
    Sampling rate : 48.0 kHz
    Frame rate : 31.250 FPS (1536 SPF)
    Compression mode : Lossy
    Stream size : 250 MiB (1%)
    Title : Original
    Language : English
    Service kind : Complete Main
    Default : No
    Forced : No
    Text #1
    ID : 4
    Format : UTF-8
    Codec ID : S_TEXT/UTF8
    Codec ID/Info : UTF-8 Plain Text
    Duration : 1 h 1 min
    Bit rate : 0 b/s
    Count of elements : 13
    Stream size : 348 Bytes (0%)
    Title : Forced
    Language : English
    Default : No
    Forced : No
    Text #2
    ID : 5
    Format : UTF-8
    Codec ID : S_TEXT/UTF8
    Codec ID/Info : UTF-8 Plain Text
    Duration : 2 h 16 min
    Bit rate : 79 b/s
    Count of elements : 2703
    Stream size : 79.7 KiB (0%)
    Title : Full
    Language : English
    Default : No
    Forced : No
    Menu
    00: 00: 00.000 : en: 1
    00: 04: 58.093 : en: 2
    00: 13: 43.535 : en: 3
    00: 19: 21.497 : en: 4
    00: 26: 46.024 : en: 5
    00: 35: 41.558 : en: 6
    00: 40: 13.288 : en: 7
    00: 46: 22.072 : en: 8
    00: 51: 34.258 : en: 9
    00: 57: 51.843 : en: 10
    01: 01: 53.292 : en: 11
    01: 08: 45.202 : en: 12
    01: 14: 22.873 : en: 13
    01: 19: 48.114 : en: 14
    01: 24: 59.299 : en: 15
    01: 32: 58.235 : en: 16
    01: 38: 48.960 : en: 17
    01: 46: 33.006 : en: 18
    01: 53: 29.629 : en: 19
    02: 01: 14.844 : en: 20

    Скриншоты для ознакомления



    Все одноименные релизы в Клубе
    Время раздачи: 24/7 (до появления первых 3-5 скачавших)

    Онлайн видео Форсаж: Хоббс и Шоу



    Форсаж: Хоббс и Шоу/Fast & Furious Presents: Hobbs & Shaw (2019) WEB-DL [H.265/2160p] [4K, SDR, 10-bit]
    Рейтинг →
     (голосов: 1, оценка 5/5, голосовать можно 1 раз )

    Другие торренты по теме:

  • Форсаж: Хоббс и Шоу / Fast & Furious Presents: Hobbs & Shaw (2019) CAMRip [H.264 / 720p-LQ] [AD]
  • Форсаж: Хоббс и Шоу / Fast & Furious Presents: Hobbs & Shaw (2019) CAMRip [AD]
  • Форсаж: Хоббс и Шоу / Fast & Furious Presents: Hobbs & Shaw (2019) WEBRip [H.264 / 1080p] [EN / KOR Sub] [PR]
  • Форсаж: Хоббс и Шоу / Fast & Furious Presents: Hobbs & Shaw (2019) WEBRip [H.264] [UKR, EN / KOR Sub] [Line]
  • Форсаж: Хоббс и Шоу / Fast & Furious Presents: Hobbs & Shaw (2019) WEBRip [UKR / KOR Sub] [Line]
  • Форсаж: Хоббс и Шоу / Fast & Furious Presents: Hobbs & Shaw (2019) WEBRip [H.264 / 1080p-LQ] [UKR, EN / KOR Sub] [Line]
  • Форсаж: Хоббс и Шоу / Fast & Furious Presents: Hobbs & Shaw (2019) WEBRip [H.264 / 1080p-LQ] [Line] [AD]
  • Форсаж: Хоббс и Шоу / Fast & Furious Presents: Hobbs & Shaw (2019) WEBRip [Line] [AD]


    • Комментарии (0):

      Информация

      Информация

        Посетители, находящиеся в группе Гости, не могут оставлять комментарии в данной новости.

        ↓ Меню




        ↓ Опрос

        Вы добавили сайт в закладки?
        Да
        Нет


        Популярное

        Рим / Rome (2005-2007) BDRip [H.264 / 1080p] (сезон 1-2, серии 1-22 из 22) LostFilm, НТВ+

        (скачиваний: 320)
        Звездочет (2004) DVDRip (серии 1-12 из 12)

        (скачиваний: 184)
        Во все тяжкие / Breaking Bad (2008-2013) BDRip [H.264 / 1080p] (сезон 1-5, серии 1-62 из 62) Кубик в Кубе, LostFilm скачать через торрент бесплатно

        (скачиваний: 166)
        Дылды (2019) WEB-DL [H.264 / 1080p-LQ] (сезон 1, серии 1 из 21) (обновляемая)

        (скачиваний: 164)
        Горе от ума (1977) DVD5 (Малый Театр)

        (скачиваний: 151)
        Солдаты (2004-2013) DVDRip / SATRip (сезон 1-17 + Дембельский альбом, серии 1-633 из 633) скачать через торрент бесплатно

        (скачиваний: 133)
        След (2007-2019) SATRip (серии 1-2135)

        (скачиваний: 109)
        Властелин колец / The Lord of the Rings (2001,2002,2003) BDRip [1080p] [Extended Edition] [Трилогия]

        (скачиваний: 93)
        Кремниевая долина / Silicon Valley (2014) HDTVRip (сезон 1, серии 1-8 из 8) Кубик в Кубе скачать через торрент бесплатно

        (скачиваний: 93)
        Друзья / Friends (1994-2004) BDRip (сезон 1-10, серии 1-236 из 236) РТР скачать через торрент бесплатно

        (скачиваний: 80)