.
Авторизация | Регистрация

bitok.xyz

» » Свет моей жизни / Light of My Life (2019) BDRip [H.264 / 720p] торрент скачать бесплатно


    Свет моей жизни / Light of My Life (2019) BDRip [H.264 / 720p] торрент скачать бесплатно

    Дата: 17-10-2019, 05:00 | .torrent скачали: 0

    Свет моей жизни / Light of My Life (2019) BDRip [H.264 / 720p]Производство: США/Black Bear Pictures, Sea Change Media
    Жанр: Драма, фантастика
    Режиссер: Кейси Аффлек
    Продюсер: Джон Пауэрс Миддлтон, Тедди Шварцман, Майкл Хэймлер

    Актеры
    Кейси Аффлек, Анна Пнёвски, Том Бауэр, Элизабет Мосс, Хротгар Мэтьюз, Тимоти Уэббер, Монк Серрелл Фрид, Джесси Джеймс Пирс, Томми Кларк, Ллойд Каннингэм

    Описание

    Восемь лет назад человечество поразил неизвестный вирус, убивший практически всех женщин на Земле. Мужчина с 12-летней дочерью, у которой оказался иммунитет к заболеванию, путешествует по лесам Северной Америки, лишь при большой надобности приближаясь к городам. Отец всеми силами пытается оградить девочку от опасностей, подстерегающих путников на каждом шагу.

    Возраст: 18+ (зрителям, достигшим 18 лет. запрещено для детей)
    Рейтинг MPAA: R (лицам до 17 лет обязательно присутствие взрослого)
    Дата мировой премьеры: 8 февраля 2019
    Дата российской премьеры: 22 августа 2019, Парадиз
    Релиз от: NNMClub
    Продолжительность: 01: 59: 54
    Качество видео: BDRip 720p (Heisenberg )
    Перевод: Дублированный, профессиональный (многоголосый, закадровый)
    Субтитры: Русские, английские (full, SDH)
    Видео: AVC/H.264, 1194x720, (5: 3), 5000 Kbps, 23.976 fps
    Аудио 1: AC3, 6 ch, 384 Kbps - Русский (DUB, iTunes)
    Аудио 2: AC3, 2 ch, 192 Kbps - Русский (MVO, HDRezka Studio)
    Аудио 3: AC3, 6 ch, 448 Kbps - АнглийскийGeneral
    Unique ID : 235367783762775392398167403520750504222 (0xB1122FAF57ED1C2F476D2E1555F3C91E)
    Complete name : S: Light.of.My.Life.2019.BDRip.720p.NNMClub.mkv
    Format : Matroska
    Format version : Version 4
    File size : 5.04 GiB
    Duration : 1 h 59 min
    Overall bit rate : 6 020 kb/s
    Movie name : Light of My Life (2019) | NNMClub
    Encoded date : UTC 2019-10-16 09: 19: 48
    Writing application : mkvmerge v38.0.0 (\'The Silent Type\') 64-bit
    Writing library : libebml v1.3.9 + libmatroska v1.5.2
    Cover : Yes
    Attachments : Cover.jpg/x264.log
    Video
    ID : 1
    Format : AVC
    Format/Info : Advanced Video Codec
    Format profile : High@L4.1
    Format settings : CABAC/9 Ref Frames
    Format settings, CABAC : Yes
    Format settings, Reference : 9 frames
    Codec ID : V_MPEG4/ISO/AVC
    Duration : 1 h 59 min
    Bit rate : 5 000 kb/s
    Width : 1 194 pixels
    Height : 720 pixels
    Display aspect ratio : 5: 3
    Frame rate mode : Constant
    Frame rate : 23.976 (24000/1001) FPS
    Color space : YUV
    Chroma subsampling : 4: 2: 0
    Bit depth : 8 bits
    Scan type : Progressive
    Bits/(Pixel*Frame) : 0.243
    Stream size : 4.18 GiB (83%)
    Title : Light of My Life (2019)
    Writing library : x264 core 158 r2984 3759fcb
    Encoding settings : cabac=1/ref=9/deblock=1: -2: -2/analyse=0x3: 0x133/me=esa/subme=11/psy=1/psy_rd=1.00: 0.10/mixed_ref=1/me_range=32/chroma_me=1/trellis=2/8x8dct=1/cqm=0/deadzone=21, 11/fast_pskip=0/chroma_qp_offset=-3/threads=12/lookahead_threads=3/sliced_threads=0/nr=0/decimate=0/interlaced=0/bluray_compat=0/constrained_intra=0/bframes=12/b_pyramid=2/b_adapt=2/b_bias=0/direct=3/weightb=1/open_gop=0/weightp=2/keyint=240/keyint_min=23/scenecut=40/intra_refresh=0/rc_lookahead=60/rc=2pass/mbtree=0/bitrate=5000/ratetol=1.0/qcomp=0.60/qpmin=0/qpmax=69/qpstep=4/cplxblur=20.0/qblur=0.5/vbv_maxrate=50000/vbv_bufsize=62500/nal_hrd=none/filler=0/ip_ratio=1.40/pb_ratio=1.30/aq=1: 1.00
    Language : English
    Default : Yes
    Forced : No
    Audio #1
    ID : 2
    Format : AC-3
    Format/Info : Audio Coding 3
    Commercial name : Dolby Digital
    Codec ID : A_AC3
    Duration : 1 h 59 min
    Bit rate mode : Constant
    Bit rate : 384 kb/s
    Channel(s) : 6 channels
    Channel layout : L R C LFE Ls Rs
    Sampling rate : 48.0 kHz
    Frame rate : 31.250 FPS (1536 SPF)
    Bit depth : 16 bits
    Compression mode : Lossy
    Stream size : 329 MiB (6%)
    Title : DUB | iTunes
    Language : Russian
    Service kind : Complete Main
    Default : Yes
    Forced : No
    Audio #2
    ID : 3
    Format : AC-3
    Format/Info : Audio Coding 3
    Commercial name : Dolby Digital
    Codec ID : A_AC3
    Duration : 1 h 59 min
    Bit rate mode : Constant
    Bit rate : 192 kb/s
    Channel(s) : 2 channels
    Channel layout : L R
    Sampling rate : 48.0 kHz
    Frame rate : 31.250 FPS (1536 SPF)
    Bit depth : 16 bits
    Compression mode : Lossy
    Stream size : 165 MiB (3%)
    Title : MVO | HDRezka Studio
    Language : Russian
    Service kind : Complete Main
    Default : No
    Forced : No
    Audio #3
    ID : 4
    Format : AC-3
    Format/Info : Audio Coding 3
    Commercial name : Dolby Digital
    Codec ID : A_AC3
    Duration : 1 h 59 min
    Bit rate mode : Constant
    Bit rate : 448 kb/s
    Channel(s) : 6 channels
    Channel layout : L R C LFE Ls Rs
    Sampling rate : 48.0 kHz
    Frame rate : 31.250 FPS (1536 SPF)
    Bit depth : 16 bits
    Compression mode : Lossy
    Stream size : 384 MiB (7%)
    Title : Original
    Language : English
    Service kind : Complete Main
    Default : No
    Forced : No
    Text #1
    ID : 5
    Format : UTF-8
    Codec ID : S_TEXT/UTF8
    Codec ID/Info : UTF-8 Plain Text
    Duration : 1 h 55 min
    Bit rate : 76 b/s
    Count of elements : 1323
    Stream size : 64.7 KiB (0%)
    Title : Full FOCS
    Language : Russian
    Default : No
    Forced : No
    Text #2
    ID : 6
    Format : UTF-8
    Codec ID : S_TEXT/UTF8
    Codec ID/Info : UTF-8 Plain Text
    Duration : 1 h 54 min
    Bit rate : 49 b/s
    Count of elements : 1254
    Stream size : 41.2 KiB (0%)
    Title : Full
    Language : English
    Default : No
    Forced : No
    Text #3
    ID : 7
    Format : UTF-8
    Codec ID : S_TEXT/UTF8
    Codec ID/Info : UTF-8 Plain Text
    Duration : 1 h 54 min
    Bit rate : 53 b/s
    Count of elements : 1376
    Stream size : 44.7 KiB (0%)
    Title : SDH
    Language : English
    Default : No
    Forced : No
    Menu
    00: 00: 00.000 : en: 00: 00: 00.000
    00: 12: 13.107 : en: 00: 12: 13.107
    00: 18: 44.040 : en: 00: 18: 44.040
    00: 26: 57.115 : en: 00: 26: 57.115
    00: 35: 30.879 : en: 00: 35: 30.879
    00: 43: 29.982 : en: 00: 43: 29.982
    00: 48: 57.560 : en: 00: 48: 57.560
    00: 58: 51.862 : en: 00: 58: 51.862
    01: 09: 07.435 : en: 01: 09: 07.435
    01: 15: 28.733 : en: 01: 15: 28.733
    01: 21: 34.306 : en: 01: 21: 34.306
    01: 26: 47.702 : en: 01: 26: 47.702
    01: 32: 53.985 : en: 01: 32: 53.985
    01: 38: 16.349 : en: 01: 38: 16.349
    01: 47: 58.847 : en: 01: 47: 58.847
    01: 55: 18.745 : en: 01: 55: 18.745x264 info: profile High, level 4.1, 4: 2: 0, 8-bit
    x264 info: frame I: 970 Avg QP: 10.54 size: 187260
    x264 info: frame P: 24862 Avg QP: 13.36 size: 60067
    x264 info: frame B: 146660 Avg QP: 14.26 size: 19196
    x264 info: consecutive B-frames: 0.8% 0.4% 1.4% 3.7% 5.4% 41.3% 6.9% 4.5% 3.3% 1.5% 7.6% 12.9% 10.3%
    x264 info: mb I I16..4: 36.4% 39.2% 24.5%
    x264 info: mb P I16..4: 1.5% 10.7% 0.8% P16..4: 24.7% 30.7% 21.1% 5.1% 0.8% skip: 4.5%
    x264 info: mb B I16..4: 0.2% 1.2% 0.2% B16..8: 28.0% 25.7% 10.0% direct: 5.2% skip: 29.5% L0: 57.8% L1: 35.0% BI: 7.2%
    x264 info: 8x8 transform intra: 72.6% inter: 39.0%
    x264 info: direct mvs spatial: 94.6% temporal: 5.4%
    x264 info: coded y, uvDC, uvAC intra: 89.6% 92.9% 87.1% inter: 27.6% 31.1% 18.8%
    x264 info: i16 v, h, dc, p: 35% 5% 35% 25%
    x264 info: i8 v, h, dc, ddl, ddr, vr, hd, vl, hu: 10% 9% 24% 8% 10% 9% 9% 10% 11%
    x264 info: i4 v, h, dc, ddl, ddr, vr, hd, vl, hu: 7% 5% 39% 7% 9% 9% 8% 7% 8%
    x264 info: i8c dc, h, v, p: 61% 17% 10% 11%
    x264 info: Weighted P-Frames: Y: 3.5% UV: 2.1%
    x264 info: ref P L0: 36.5% 10.8% 18.5% 9.9% 7.4% 6.3% 5.6% 3.1% 1.9% 0.0% 0.0%
    x264 info: ref B L0: 46.2% 20.8% 12.5% 7.5% 6.3% 4.1% 2.2% 0.4%
    x264 info: ref B L1: 89.2% 10.8%
    x264 info: kb/s: 4993.16
    Скриншоты для ознакомления


    Все одноименные релизы в Клубе
    Время раздачи: 24/7 до первых 10-и скачавших

    Онлайн видео Свет моей жизни



    Свет моей жизни/Light of My Life (2019) BDRip [H.264/720p]
    Рейтинг →
     (голосов: 1, оценка 3/5, голосовать можно 1 раз )

    Другие торренты по теме:

  • Свет моей жизни / Light of My Life (2019) WEB-DLRip [MVO]
  • Свет моей жизни / Light of My Life (2019) WEB-DL [H.264 / 1080p-LQ] [MVO]
  • Свет моей жизни / Light of My Life (2019) WEB-DL [H.264 / 1080p-LQ]
  • Свет моей жизни / Light of My Life (2019) WEB-DLRip [H.265] [10-bit]
  • Свет моей жизни / Light of My Life (2019) WEB-DLRip [H.265 / 720p-LQ] [10-bit] [PR]
  • Свет моей жизни / Light of My Life (2019) BDRip [H.264 / 1080p] [PR]
  • Свет моей жизни / Light of My Life (2019) BDRemux [H.264 / 1080p]


    • Комментарии (0):

      Информация

      Информация

        Посетители, находящиеся в группе Гости, не могут оставлять комментарии в данной новости.

        ↓ Меню




        ↓ Опрос

        Вы добавили сайт в закладки?
        Да
        Нет


        Популярное

        Рим / Rome (2005-2007) BDRip [H.264 / 1080p] (сезон 1-2, серии 1-22 из 22) LostFilm, НТВ+

        (скачиваний: 320)
        Звездочет (2004) DVDRip (серии 1-12 из 12)

        (скачиваний: 184)
        Во все тяжкие / Breaking Bad (2008-2013) BDRip [H.264 / 1080p] (сезон 1-5, серии 1-62 из 62) Кубик в Кубе, LostFilm скачать через торрент бесплатно

        (скачиваний: 166)
        Дылды (2019) WEB-DL [H.264 / 1080p-LQ] (сезон 1, серии 1 из 21) (обновляемая)

        (скачиваний: 164)
        Горе от ума (1977) DVD5 (Малый Театр)

        (скачиваний: 151)
        Солдаты (2004-2013) DVDRip / SATRip (сезон 1-17 + Дембельский альбом, серии 1-633 из 633) скачать через торрент бесплатно

        (скачиваний: 133)
        След (2007-2019) SATRip (серии 1-2135)

        (скачиваний: 109)
        Властелин колец / The Lord of the Rings (2001,2002,2003) BDRip [1080p] [Extended Edition] [Трилогия]

        (скачиваний: 93)
        Кремниевая долина / Silicon Valley (2014) HDTVRip (сезон 1, серии 1-8 из 8) Кубик в Кубе скачать через торрент бесплатно

        (скачиваний: 93)
        Друзья / Friends (1994-2004) BDRip (сезон 1-10, серии 1-236 из 236) РТР скачать через торрент бесплатно

        (скачиваний: 80)