.
Авторизация | Регистрация
bitok.xyz
» » Гость на свадьбе / The Wedding Guest (2018) BDRemux [H.264 / 1080p] торрент скачать бесплатно


    Гость на свадьбе / The Wedding Guest (2018) BDRemux [H.264 / 1080p] торрент скачать бесплатно

    Дата: 17-10-2019, 05:00 | .torrent скачали: 0

    Гость на свадьбе / The Wedding Guest (2018) BDRemux [H.264 / 1080p]Производство: Великобритания/Riverstone Pictures, Revolution Films, Ingenious Media
    Жанр: Триллер
    Режиссер: Майкл Уинтерботтом

    Актеры
    Дев Патель, Радхика Апте, Джим Сарбх, Хэриш Ханна, Ниш Натвани, Meherbaan Singh, Sidhu Manpreet

    Описание

    Точно спланированная операция, призванная спасти девушку от нежелательной свадьбы, оборачивается гонкой на перегонки со временем, где каждый неверный шаг может стоит жизни.

    Рейтинг MPAA: R (лицам до 17 лет обязательно присутствие взрослого)
    Дата мировой премьеры: 8 сентября 2018
    Продолжительность: 01: 40: 08
    Качество видео: BDRemux 1080р
    Перевод: Многоголосый профессиональный (iTunes)
    Субтитры: Русские, Украинские, Английские
    Видео: AVC/H.264, 1920х1080, ~25.0 Мbps
    Аудио: AC3, 6 ch, 384 Kbps - Русский
    Аудио: DTS-HD MA, 6 ch, 2124 Kbps - Английский
    Уникальный идентификатор : 198352551435361676721477845366347627581 (0x95394FD4737E668847023E3486DB7C3D)
    Полное имя : E: The.Wedding.Guest.2018.BDREMUX.1080p.mkv
    Формат : Matroska
    Версия формата : Version 4
    Размер файла : 18, 6 Гбайт
    Продолжительность : 1 ч. 40 м.
    Режим общего битрейта : Переменный
    Общий поток : 26, 6 Мбит/сек
    Дата кодирования : UTC 2019-10-15 22: 34: 05
    Программа кодирования : mkvmerge v22.0.0 (\'At The End Of The World\') 64-bit
    Библиотека кодирования : libebml v1.3.5 + libmatroska v1.4.8
    Видео
    Идентификатор : 1
    Формат : AVC
    Формат/Информация : Advanced Video Codec
    Профиль формата : High@L4.1
    Настройки формата : CABAC/4 Ref Frames
    Параметр CABAC формата : Да
    Параметр RefFrames формата : 4 кадра
    Идентификатор кодека : V_MPEG4/ISO/AVC
    Продолжительность : 1 ч. 36 м.
    Вид битрейта : Переменный
    Битрейт : 25, 0 Мбит/сек
    Максимальный битрейт : 30, 0 Мбит/сек
    Ширина : 1920 пикселей
    Высота : 1080 пикселей
    Соотношение сторон : 16: 9
    Режим частоты кадров : Постоянный
    Частота кадров : 23, 976 (24000/1001) кадра/сек
    Цветовое пространство : YUV
    Субдискретизация насыщенности : 4: 2: 0
    Битовая глубина : 8 бит
    Тип развёртки : Прогрессивная
    Бит/(Пиксели*Кадры) : 0.502
    Размер потока : 16, 9 Гбайт (91%)
    Язык : English
    Default : Да
    Forced : Нет
    Цветовой диапазон : Limited
    Основные цвета : BT.709
    Характеристики трансфера : BT.709
    Коэффициенты матрицы : BT.709
    Аудио #1
    Идентификатор : 2
    Формат : AC-3
    Формат/Информация : Audio Coding 3
    Коммерческое название : Dolby Digital
    Идентификатор кодека : A_AC3
    Продолжительность : 1 ч. 36 м.
    Вид битрейта : Постоянный
    Битрейт : 384 Кбит/сек
    Каналы : 6 каналов
    ChannelLayout : L R C LFE Ls Rs
    Частота : 48, 0 КГц
    Частота кадров : 31, 250 кадров/сек (1536 SPF)
    Метод сжатия : С потерями
    Размер потока : 265 Мбайт (1%)
    Заголовок : iTunes
    Язык : Russian
    ServiceKind/String : Complete Main
    Default : Да
    Forced : Да
    Аудио #2
    Идентификатор : 3
    Формат : DTS XLL
    Формат/Информация : Digital Theater Systems
    Коммерческое название : DTS-HD Master Audio
    Идентификатор кодека : A_DTS
    Продолжительность : 1 ч. 40 м.
    Вид битрейта : Переменный
    Битрейт : 2124 Кбит/сек
    Каналы : 6 каналов
    ChannelLayout : C L R Ls Rs LFE
    Частота : 48, 0 КГц
    Частота кадров : 93, 750 кадра/сек (512 SPF)
    Битовая глубина : 16 бит
    Метод сжатия : Без потерь
    Размер потока : 1, 49 Гбайт (8%)
    Заголовок : Original
    Язык : English
    Default : Нет
    Forced : Нет
    Текст #1
    Идентификатор : 4
    Формат : UTF-8
    Идентификатор кодека : S_TEXT/UTF8
    Идентификатор кодека/Информация : UTF-8 Plain Text
    Продолжительность : 1 ч. 28 м.
    Битрейт : 48 бит/сек
    ElementCount : 770
    Размер потока : 31, 0 Кбайт (0%)
    Заголовок : Full
    Язык : Russian
    Default : Нет
    Forced : Нет
    Текст #2
    Идентификатор : 5
    Формат : UTF-8
    Идентификатор кодека : S_TEXT/UTF8
    Идентификатор кодека/Информация : UTF-8 Plain Text
    Продолжительность : 1 ч. 28 м.
    Битрейт : 48 бит/сек
    ElementCount : 769
    Размер потока : 31, 0 Кбайт (0%)
    Заголовок : Full
    Язык : Ukrainian
    Default : Нет
    Forced : Нет
    Текст #3
    Идентификатор : 6
    Формат : UTF-8
    Идентификатор кодека : S_TEXT/UTF8
    Идентификатор кодека/Информация : UTF-8 Plain Text
    Продолжительность : 1 ч. 32 м.
    Битрейт : 35 бит/сек
    ElementCount : 956
    Размер потока : 24, 0 Кбайт (0%)
    Заголовок : SDH
    Язык : English
    Default : Нет
    Forced : Нет

    Скриншоты для ознакомления



    Все одноименные релизы в Клубе
    Время раздачи: 24/7 (до появления первых 3-5 скачавших)

    Онлайн видео Гость на свадьбе



    Гость на свадьбе/The Wedding Guest (2018) BDRemux [H.264/1080p]
    Рейтинг →
     (голосов: 1, оценка 3/5, голосовать можно 1 раз )

    Другие торренты по теме:

  • Гость на свадьбе / The Wedding Guest (2018) WEB-DLRip
  • Гость на свадьбе / The Wedding Guest (2018) BDRip
  • Гость на свадьбе / The Wedding Guest (2018) BDRip [H.264 / 1080p]
  • Гость на свадьбе / The Wedding Guest (2018) DVD9


    • Комментарии (0):

      Информация

      Информация

        Посетители, находящиеся в группе Гости, не могут оставлять комментарии в данной новости.

        ↓ Меню




        ↓ Опрос

        Вы добавили сайт в закладки?
        Да
        Нет


        Популярное