.
Авторизация | Регистрация

bitok.xyz

» » Сукины дети (1990) DVD5 торрент скачать бесплатно


    Сукины дети (1990) DVD5 торрент скачать бесплатно

    Дата: 17-10-2019, 05:00 | .torrent скачали: 1

    Сукины дети (1990) DVD5Производство: СССР
    Жанр: Комедия, Драма
    Режиссер: Леонид Филатов

    Актеры
    Евгений Евстигнеев, Лия Ахеджакова, Александр Абдулов, Станислав Говорухин, Владимир Ильин, Лариса Удовиченко, Леонид Филатов и др.
    Описание : Сатирическая комедия Леонида Филатова, снятая по его же пьесе. Возмущенные произволом чиновников, решаюших судьбу театра, актеры начинают изобретательную борьбу за свои права и творческую свободу.

    Возраст: 16+ (зрителям, достигшим 16 лет)
    Продолжительность: 01: 32: 50
    Качество видео: DVD5
    Видео: MPEG-2, 720x576@768x576, ~6000 Kbps
    Аудио: AC3, 6 ch, 448 Kbps
    Меню: анимированное
    Субтитры: отсутствуют
    Дополнительно: фильмография
    Общее
    Полное имя : Сукины дети.1990.DVD5VIDEO_TSVTS_01_2.VOB
    Формат : MPEG-PS
    Размер файла : 954 Мбайт
    Продолжительность : 20 м. 9 с.
    Режим общего битрейта : Переменный
    Общий поток : 6614 Кбит/сек
    Видео
    Идентификатор : 224 (0xE0)
    Формат : MPEG Video
    Версия формата : Version 2
    Профиль формата : Main@Main
    Настройки формата : CustomMatrix/BVOP
    Параметр BVOP формата : Да
    Параметр матрицы формата : Выборочная
    Параметр GOP формата : M=3, N=12
    Структура изображения : Frame
    Продолжительность : 20 м. 9 с.
    Вид битрейта : Переменный
    Битрейт : 6034 Кбит/сек
    Максимальный битрейт : 9000 Кбит/сек
    Ширина : 720 пикселей
    Высота : 576 пикселей
    Соотношение сторон : 4: 3
    Частота кадров : 25, 000 кадров/сек
    Стандарт вещания : PAL
    Цветовое пространство : YUV
    Субдискретизация насыщенности : 4: 2: 0
    Битовая глубина : 8 бит
    Тип развёртки : Чересстрочная
    Порядок развёртки : Верхнее поле первое
    Метод сжатия : С потерями
    Бит/(Пиксели*Кадры) : 0.582
    Временной код первого кадра : 00: 20: 54: 03
    Оригинал временного кода : Group of pictures t_head
    GOP, открыто/закрыто : Открыто
    Размер потока : 870 Мбайт (91%)
    Аудио
    Идентификатор : 189 (0xBD)-128 (0x80)
    Формат : AC-3
    Формат/Информация : Audio Coding 3
    Коммерческое название : Dolby Digital
    Режим смешивания : DVD-Video
    Продолжительность : 20 м. 9 с.
    Вид битрейта : Постоянный
    Битрейт : 448 Кбит/сек
    Каналы : 6 каналов
    ChannelLayout : L R C LFE Ls Rs
    Частота : 48, 0 КГц
    Частота кадров : 31, 250 кадров/сек (1536 SPF)
    Метод сжатия : С потерями
    Задержка видео : -280 мс.
    Размер потока : 64, 6 Мбайт (7%)
    ServiceKind/String : Complete Main
    Меню


    Сукины дети (1990) DVD5
    Рейтинг →
     (голосов: 1, оценка 4/5, голосовать можно 1 раз )

    Другие торренты по теме:



      Комментарии (0):

      Информация

      Информация

        Посетители, находящиеся в группе Гости, не могут оставлять комментарии в данной новости.

        ↓ Меню




        ↓ Опрос

        Вы добавили сайт в закладки?
        Да
        Нет


        Популярное

        Рим / Rome (2005-2007) BDRip [H.264 / 1080p] (сезон 1-2, серии 1-22 из 22) LostFilm, НТВ+

        (скачиваний: 320)
        Звездочет (2004) DVDRip (серии 1-12 из 12)

        (скачиваний: 184)
        Во все тяжкие / Breaking Bad (2008-2013) BDRip [H.264 / 1080p] (сезон 1-5, серии 1-62 из 62) Кубик в Кубе, LostFilm скачать через торрент бесплатно

        (скачиваний: 166)
        Дылды (2019) WEB-DL [H.264 / 1080p-LQ] (сезон 1, серии 1 из 21) (обновляемая)

        (скачиваний: 164)
        Горе от ума (1977) DVD5 (Малый Театр)

        (скачиваний: 151)
        Солдаты (2004-2013) DVDRip / SATRip (сезон 1-17 + Дембельский альбом, серии 1-633 из 633) скачать через торрент бесплатно

        (скачиваний: 133)
        След (2007-2019) SATRip (серии 1-2135)

        (скачиваний: 109)
        Властелин колец / The Lord of the Rings (2001,2002,2003) BDRip [1080p] [Extended Edition] [Трилогия]

        (скачиваний: 93)
        Кремниевая долина / Silicon Valley (2014) HDTVRip (сезон 1, серии 1-8 из 8) Кубик в Кубе скачать через торрент бесплатно

        (скачиваний: 93)
        Друзья / Friends (1994-2004) BDRip (сезон 1-10, серии 1-236 из 236) РТР скачать через торрент бесплатно

        (скачиваний: 80)