.
Авторизация | Регистрация

bitok.xyz

» » Путь: Во все тяжкие / El Camino: A Breaking Bad Movie (2019) WEBRip [H.264] [MVO] торрент скачать бесплатно


    Путь: Во все тяжкие / El Camino: A Breaking Bad Movie (2019) WEBRip [H.264] [MVO] торрент скачать бесплатно

    Дата: 18-10-2019, 05:00 | .torrent скачали: 1

    Путь: Во все тяжкие / El Camino: A Breaking Bad Movie (2019) WEBRip [H.264] [MVO]Производство: США/American Movie Classics (AMC), Netflix, Sony Pictures Television
    Жанр: Драма, криминал
    Режиссер: Винс Гиллиган

    Актеры
    Аарон Пол, Брайан Крэнстон, Джесси Племонс, Мэтт Джонс, Джонатан Бэнкс, Чарльз Бэйкер, Ларри Хэнкин, Кевин О. Ранкин, Тесс Харпер, Марла Гиббс

    Описание

    Джесси Пинкман сбежал от неонацистов. Не зная, куда ему податься, он скрывается от полиции, похитителей и прошлого. Теперь он должен понять, как ему жить дальше.

    Дата мировой премьеры: 11 октября 2019
    Продолжительность: 02: 02: 42
    Качество видео: WEBRip
    Перевод: Многоголосый профессиональный (LostFilm )
    Субтитры: Русские, английские
    Видео: AVC/H.264, 1024x426, ~1750 Kbps
    Аудио #1: AC3, 2 ch, 384 Kbps | Русский (MVO)
    Аудио #2: AC3, 6 ch, 384 Kbps | Английский
    Общее
    Уникальный идентификатор : 198252998108408585474893142711241143645 (0x95262378CF2BA6919C8C4E35F809F55D)
    Полное имя : C: UsersSTOTIKDownloadsEl.Camino.A.Breaking.Bad.Movie.2019.mkv
    Формат : Matroska
    Версия формата : Version 4
    Размер файла : 2, 16 Гбайт
    Продолжительность : 2 ч. 2 м.
    Общий поток : 2518 Кбит/сек
    Дата кодирования : UTC 2019-10-17 06: 05: 39
    Программа кодирования : mkvmerge v8.3.0 (\'Over the Horizon\') 32bit
    Библиотека кодирования : libebml v1.3.1 + libmatroska v1.4.2
    Видео
    Идентификатор : 1
    Формат : AVC
    Формат/Информация : Advanced Video Codec
    Профиль формата : High@L4.1
    Настройки формата : CABAC/11 Ref Frames
    Параметр CABAC формата : Да
    Параметр RefFrames формата : 11 кадров
    Идентификатор кодека : V_MPEG4/ISO/AVC
    Продолжительность : 2 ч. 2 м.
    Битрейт : 1750 Кбит/сек
    Ширина : 1024 пикселя
    Высота : 426 пикселей
    Соотношение сторон : 2, 40: 1
    Режим частоты кадров : Постоянный
    Частота кадров : 24, 000 кадра/сек
    Цветовое пространство : YUV
    Субдискретизация насыщенности : 4: 2: 0
    Битовая глубина : 8 бит
    Тип развёртки : Прогрессивная
    Бит/(Пиксели*Кадры) : 0.167
    Размер потока : 1, 50 Гбайт (69%)
    Библиотека кодирования : x264 core 152 r2851 ba24899
    Настройки программы : cabac=1/ref=11/deblock=1: -2: -2/analyse=0x3: 0x113/me=umh/subme=10/psy=1/psy_rd=1.00: 0.05/mixed_ref=1/me_range=32/chroma_me=1/trellis=2/8x8dct=1/cqm=0/deadzone=21, 11/fast_pskip=0/chroma_qp_offset=-3/threads=12/lookahead_threads=3/sliced_threads=0/nr=0/decimate=0/interlaced=0/bluray_compat=0/constrained_intra=0/bframes=11/b_pyramid=2/b_adapt=2/b_bias=0/direct=3/weightb=1/open_gop=0/weightp=2/keyint=240/keyint_min=24/scenecut=40/intra_refresh=0/rc=2pass/mbtree=0/bitrate=1750/ratetol=1.0/qcomp=0.60/qpmin=0/qpmax=51/qpstep=4/cplxblur=20.0/qblur=0.5/ip_ratio=1.40/pb_ratio=1.30/aq=1: 1.00
    Язык : English
    Default : Да
    Forced : Нет
    Цветовой диапазон : Limited
    Основные цвета : BT.709
    Характеристики трансфера : BT.709
    Коэффициенты матрицы : BT.709
    Аудио #1
    Идентификатор : 2
    Формат : AC-3
    Формат/Информация : Audio Coding 3
    Коммерческое название : Dolby Digital
    Идентификатор кодека : A_AC3
    Продолжительность : 2 ч. 2 м.
    Вид битрейта : Постоянный
    Битрейт : 384 Кбит/сек
    Каналы : 2 канала
    ChannelLayout : L R
    Частота : 48, 0 КГц
    Частота кадров : 31, 250 кадров/сек (1536 SPF)
    Битовая глубина : 16 бит
    Метод сжатия : С потерями
    Размер потока : 337 Мбайт (15%)
    Заголовок : MVO (LostFilm)
    Язык : Russian
    ServiceKind/String : Complete Main
    Default : Нет
    Forced : Нет
    Аудио #2
    Идентификатор : 3
    Формат : AC-3
    Формат/Информация : Audio Coding 3
    Коммерческое название : Dolby Digital
    Идентификатор кодека : A_AC3
    Продолжительность : 2 ч. 2 м.
    Вид битрейта : Постоянный
    Битрейт : 384 Кбит/сек
    Каналы : 6 каналов
    ChannelLayout : L R C LFE Ls Rs
    Частота : 48, 0 КГц
    Частота кадров : 31, 250 кадров/сек (1536 SPF)
    Битовая глубина : 16 бит
    Метод сжатия : С потерями
    Размер потока : 337 Мбайт (15%)
    Заголовок : Original
    Язык : English
    ServiceKind/String : Complete Main
    Default : Нет
    Forced : Нет
    Текст #1
    Идентификатор : 4
    Формат : UTF-8
    Идентификатор кодека : S_TEXT/UTF8
    Идентификатор кодека/Информация : UTF-8 Plain Text
    Продолжительность : 2 ч. 1 м.
    Битрейт : 60 бит/сек
    ElementCount : 1175
    Размер потока : 54, 1 Кбайт (0%)
    Язык : Russian
    Default : Нет
    Forced : Нет
    Текст #2
    Идентификатор : 5
    Формат : UTF-8
    Идентификатор кодека : S_TEXT/UTF8
    Идентификатор кодека/Информация : UTF-8 Plain Text
    Продолжительность : 2 ч. 1 м.
    Битрейт : 51 бит/сек
    ElementCount : 1544
    Размер потока : 46, 2 Кбайт (0%)
    Язык : English
    Default : Нет
    Forced : Нет

    Скриншоты для ознакомления



    Все одноименные релизы в Клубе
    Время раздачи: 24/7 (до появления первых 3-5 скачавших)

    Онлайн видео Путь: Во все тяжкие



    Путь: Во все тяжкие/El Camino: A Breaking Bad Movie (2019) WEBRip [H.264] [MVO]
    Рейтинг →
     (голосов: 1, оценка 4/5, голосовать можно 1 раз )

    Другие торренты по теме:

  • Путь: Во все тяжкие / El Camino: A Breaking Bad Movie (2019) WEBRip [H.264 / 1080p-LQ] [EN / EN, RU Sub] [PR]
  • Путь: Во все тяжкие / El Camino: A Breaking Bad Movie (2019) WEBRip [H.264 / 1080p-LQ] [MVO]
  • Путь: Во все тяжкие / El Camino: A Breaking Bad Movie (2019) WEBRip [H.264 / 1080p] [MVO]
  • Путь: Во все тяжкие / El Camino: A Breaking Bad Movie (2019) WEBRip [H.264 / 720p-LQ] [MVO]
  • Путь: Во все тяжкие / El Camino: A Breaking Bad Movie (2019) WEBRip [H.264 / 1080p] [MVO]
  • Путь: Во все тяжкие / El Camino: A Breaking Bad Movie (2019) WEBRip [H.265 / 2160p] [4K, HDR, 10-bit] [MVO]
  • Путь: Во все тяжкие / El Camino: A Breaking Bad Movie (2019) WEB-DL [H.264 / 1080p]
  • Путь: Во все тяжкие / El Camino: A Breaking Bad Movie (2019) WEBRip [H.264 / 720p-LQ]


    • Комментарии (0):

      Информация

      Информация

        Посетители, находящиеся в группе Гости, не могут оставлять комментарии в данной новости.

        ↓ Меню




        ↓ Опрос

        Вы добавили сайт в закладки?
        Да
        Нет


        Популярное

        Рим / Rome (2005-2007) BDRip [H.264 / 1080p] (сезон 1-2, серии 1-22 из 22) LostFilm, НТВ+

        (скачиваний: 320)
        Звездочет (2004) DVDRip (серии 1-12 из 12)

        (скачиваний: 184)
        Во все тяжкие / Breaking Bad (2008-2013) BDRip [H.264 / 1080p] (сезон 1-5, серии 1-62 из 62) Кубик в Кубе, LostFilm скачать через торрент бесплатно

        (скачиваний: 166)
        Дылды (2019) WEB-DL [H.264 / 1080p-LQ] (сезон 1, серии 1 из 21) (обновляемая)

        (скачиваний: 164)
        Горе от ума (1977) DVD5 (Малый Театр)

        (скачиваний: 151)
        Солдаты (2004-2013) DVDRip / SATRip (сезон 1-17 + Дембельский альбом, серии 1-633 из 633) скачать через торрент бесплатно

        (скачиваний: 133)
        След (2007-2019) SATRip (серии 1-2135)

        (скачиваний: 109)
        Властелин колец / The Lord of the Rings (2001,2002,2003) BDRip [1080p] [Extended Edition] [Трилогия]

        (скачиваний: 93)
        Кремниевая долина / Silicon Valley (2014) HDTVRip (сезон 1, серии 1-8 из 8) Кубик в Кубе скачать через торрент бесплатно

        (скачиваний: 93)
        Друзья / Friends (1994-2004) BDRip (сезон 1-10, серии 1-236 из 236) РТР скачать через торрент бесплатно

        (скачиваний: 80)