.
Авторизация | Регистрация

bitok.xyz

» » Одесса (2019) WEB-DL [H.264 / 1080p-LQ] торрент скачать бесплатно


    Одесса (2019) WEB-DL [H.264 / 1080p-LQ] торрент скачать бесплатно

    Дата: 18-10-2019, 05:00 | .torrent скачали: 4

    Одесса (2019) WEB-DL [H.264 / 1080p-LQ]Производство: Россия/Мармот-фильм, Мосфильм
    Жанр: Драма
    Режиссер: Валерий Тодоровский
    Продюсер: Леонид Ярмольник, Валерий Тодоровский, Анастасия Бирюкова

    Актеры
    Ирина Розанова, Евгений Цыганов, Леонид Ярмольник, Ксения Раппопорт, Евгения Брик, Степан Середа, Станислав Эвентов, Вероника Устимова, Сергей Сосновский, Сергей Муравьёв

    Описание
    Одесса, август 1970 года. Самая жара. Город забит курортниками. В гости к тестю с тёщей, Григорию Иосифовичу и Раисе Ировне Давыдовым, прилетают из Москвы их зять Борис, журналист-международник, и его восьмилетний сын Валерик. Но именно в день их прилета в Одессе объявляют холерный карантин, город закрывают. Так приехавший на пару дней московский зять погружается в мир, измененный серьезной опасностью. Вскроются семейные тайны, произойдут невероятные события и случится большая запретная любовь.

    Возраст: 18+ (зрителям, достигшим 18 лет. запрещено для детей)
    Дата мировой премьеры: 6 сентября 2019
    Дата российской премьеры: 5 сентября 2019, WDSSPR
    Релиз от: NNMClub
    Продолжительность: 02: 09: 46
    Качество видео: WEB-DL 1080p
    Перевод: (Не требуется)
    Субтитры: Нет
    Видео: AVC/H.264, 1920x804, 4580 Kbps, 24.000 fps
    Аудио : AC-3, 6 ch, 384 Kbps | Русский
    General
    Unique ID : 309448860327846452770411951329166553560 (0xE8CDAEC13ED0554A31E67B1D1300F1D8)
    Complete name : /Volumes/Promise Pegasus/Odessa.WEB-DL.1080p.pk.mkv
    Format : Matroska
    Format version : Version 4
    File size : 4.50 GiB
    Duration : 2h 9mn
    Overall bit rate : 4 965 Kbps
    Movie name : Odessa WEB-DL 1080p pk
    Encoded date : UTC 2019-10-16 23: 29: 50
    Writing application : mkvmerge v37.0.0 (\'Leave It\') 64-bit
    Writing library : libebml v1.3.9 + libmatroska v1.5.2
    Video
    ID : 1
    Format : AVC
    Format/Info : Advanced Video Codec
    Format profile : High@L4
    Format settings : CABAC/5 Ref Frames
    Format settings, CABAC : Yes
    Format settings, ReFrames : 5 frames
    Codec ID : V_MPEG4/ISO/AVC
    Duration : 2h 9mn
    Bit rate : 4 580 Kbps
    Width : 1 920 pixels
    Height : 804 pixels
    Display aspect ratio : 2.40: 1
    Frame rate mode : Constant
    Frame rate : 24.000 fps
    Color space : YUV
    Chroma subsampling : 4: 2: 0
    Bit depth : 8 bits
    Scan type : Progressive
    Bits/(Pixel*Frame) : 0.124
    Stream size : 4.15 GiB (92%)
    Language : Russian
    Default : Yes
    Forced : No
    Color range : Limited
    Color primaries : BT.709
    Transfer characteristics : BT.709
    Matrix coefficients : BT.709
    Audio
    ID : 2
    Format : AC-3
    Format/Info : Audio Coding 3
    Commercial name : Dolby Digital
    Codec ID : A_AC3
    Duration : 2h 9mn
    Bit rate mode : Constant
    Bit rate : 384 Kbps
    Channel(s) : 6 channels
    Channel layout : L R C LFE Ls Rs
    Sampling rate : 48.0 KHz
    Frame rate : 31.250 fps (1536 SPF)
    Bit depth : 16 bits
    Compression mode : Lossy
    Stream size : 356 MiB (8%)
    Title : Russian Original
    Language : Russian
    Service kind : Complete Main
    Default : Yes
    Forced : No
    Menu
    00: 00: 00.000 : en: Р“Рава 1
    00: 11: 08.500 : en: Р“Рава 2
    00: 16: 10.208 : en: Р“Рава 3
    00: 24: 57.249 : en: Р“Рава 4
    00: 33: 41.790 : en: Р“Рава 5
    00: 42: 17.581 : en: Р“Рава 6
    00: 51: 01.706 : en: Р“Рава 7
    01: 02: 27.706 : en: Р“Рава 8
    01: 11: 49.872 : en: Р“Рава 9
    01: 18: 05.747 : en: Р“Рава 10
    01: 27: 22.080 : en: Р“Рава 11
    01: 34: 27.621 : en: Р“Рава 12
    01: 42: 12.871 : en: Р“Рава 13
    01: 48: 22.871 : en: Р“Рава 14
    01: 53: 07.829 : en: Р“Рава 15
    02: 02: 13.912 : en: Р“Рава 16

    Скриншоты для ознакомления



    Все одноименные релизы в Клубе
    Время раздачи: 24/7 (круглосуточно) (до появления первых 3-5 скачавших)

    Онлайн видео Одесса (2019) WEB-DL [H.264



    Одесса (2019) WEB-DL [H.264/1080p-LQ]
    Рейтинг →
     (голосов: 1, оценка 5/5, голосовать можно 1 раз )

    Другие торренты по теме:

  • Одесса (2019) WEB-DL [1080p] ATV


    • Комментарии (0):

      Информация

      Информация

        Посетители, находящиеся в группе Гости, не могут оставлять комментарии в данной новости.

        ↓ Меню




        ↓ Опрос

        Вы добавили сайт в закладки?
        Да
        Нет


        Популярное

        Рим / Rome (2005-2007) BDRip [H.264 / 1080p] (сезон 1-2, серии 1-22 из 22) LostFilm, НТВ+

        (скачиваний: 322)
        Звездочет (2004) DVDRip (серии 1-12 из 12)

        (скачиваний: 184)
        Дылды (2019) WEB-DL [H.264 / 1080p-LQ] (сезон 1, серии 1 из 21) (обновляемая)

        (скачиваний: 166)
        Во все тяжкие / Breaking Bad (2008-2013) BDRip [H.264 / 1080p] (сезон 1-5, серии 1-62 из 62) Кубик в Кубе, LostFilm скачать через торрент бесплатно

        (скачиваний: 166)
        Горе от ума (1977) DVD5 (Малый Театр)

        (скачиваний: 154)
        Солдаты (2004-2013) DVDRip / SATRip (сезон 1-17 + Дембельский альбом, серии 1-633 из 633) скачать через торрент бесплатно

        (скачиваний: 134)
        След (2007-2019) SATRip (серии 1-2135)

        (скачиваний: 109)
        Властелин колец / The Lord of the Rings (2001,2002,2003) BDRip [1080p] [Extended Edition] [Трилогия]

        (скачиваний: 93)
        Кремниевая долина / Silicon Valley (2014) HDTVRip (сезон 1, серии 1-8 из 8) Кубик в Кубе скачать через торрент бесплатно

        (скачиваний: 93)
        Друзья / Friends (1994-2004) BDRip (сезон 1-10, серии 1-236 из 236) РТР скачать через торрент бесплатно

        (скачиваний: 80)