.
Авторизация | Регистрация

bitok.xyz

» » Темная сторона Луны / The Dark Side of the Moon (1990) BDRemux [H.264 / 1080p] торрент скачать бесплатно


    Темная сторона Луны / The Dark Side of the Moon (1990) BDRemux [H.264 / 1080p] торрент скачать бесплатно

    Дата: 18-10-2019, 05:00 | .torrent скачали: 0

    Темная сторона Луны / The Dark Side of the Moon (1990) BDRemux [H.264 / 1080p]Производство: США/Wildstreet Pictures
    Жанр: Ужасы, Фантастика, Боевик, Детектив
    Режиссер: D.J. Уэбстер
    Продюсер: Кит Уолли, D.J. Уэбстер, Масахиро Нисидзава

    Актеры
    Роберт Сэмпсон, Уилл Бледсо, Джо Тёркел, Камилла Мор, Джон Дил, Венди МакДональд, Алан Блюменфилд, Кен Леско

    Описание

    2022 год. Космический корабль, занимающийся очень рискованным занятием — ремонтом спутников, имеющих на своём вооружении ядерные заряды, получает сигнал SOS с тёмной стороны Луны, где обнаруживает кажущийся покинутым космолет, в котором все еще обитает злая нечисть…

    Рейтинг MPAA: R (лицам до 17 лет обязательно присутствие взрослого)
    Релиз от: R.G. Goldenshara
    Продолжительность: 01: 31: 03
    Качество видео: BDRemux 1080p
    Перевод: Авторский, Двухголосый любительский
    Субтитры: отсутствуют
    Видео: AVC/H.264, 1920x1080 (16: 9), ~29.9 Mbps, 23.976 fps
    Аудио #1: AC3, 2 ch, 48.0 KHz, 192 kbps | Русский - (AVO Л.Володарский)
    Аудио #2: AC3, 2 ch, 48.0 KHz, 192 kbps | Русский - (DVO Den904 DeadSno)
    Аудио #3: DTS, 2 ch, 48.0 KHz, 2049 kbps | Английский
    Аудио #4: AC3, 2 ch, 48.0 KHz, 192 kbps | Английский - (Комментарии)
    General
    Unique ID : 248795492283719381911272463822417197423 (0xBB2C44D4201F118E935A25B0CD4E796F)
    Complete name : E: Мои рипыТемная сторона Луны.1990.BDRemux.1080p.R.G. Goldenshara.mkv
    Format : Matroska
    Format version : Version 4/Version 2
    File size : 20.7 GiB
    Duration : 1h 31mn
    Overall bit rate mode : Variable
    Overall bit rate : 32.5 Mbps
    Encoded date : UTC 2019-10-15 19: 23: 00
    Writing application : mkvmerge v6.8.0 (\'Theme for Great Cities\') 64bit built on Mar 2 2014 21: 34: 26
    Writing library : libebml v1.3.0 + libmatroska v1.4.1
    Video
    ID : 1
    Format : AVC
    Format/Info : Advanced Video Codec
    Format profile : High@L4.1
    Format settings, CABAC : Yes
    Format settings, ReFrames : 3 frames
    Codec ID : V_MPEG4/ISO/AVC
    Duration : 1h 31mn
    Bit rate mode : Variable
    Bit rate : 30.0 Mbps
    Maximum bit rate : 40.0 Mbps
    Width : 1 920 pixels
    Height : 1 080 pixels
    Display aspect ratio : 16: 9
    Frame rate mode : Constant
    Frame rate : 23.976 fps
    Color space : YUV
    Chroma subsampling : 4: 2: 0
    Bit depth : 8 bits
    Scan type : Progressive
    Bits/(Pixel*Frame) : 0.603
    Stream size : 18.6 GiB (90%)
    Writing library : x264 core 148 r2744 b97ae06
    Encoding settings : cabac=1/ref=4/deblock=1: -1: -1/analyse=0x3: 0x113/me=hex/subme=7/psy=1/psy_rd=1.00: 0.15/mixed_ref=1/me_range=16/chroma_me=1/trellis=1/8x8dct=1/cqm=0/deadzone=21, 11/fast_pskip=1/chroma_qp_offset=-3/threads=12/lookahead_threads=2/sliced_threads=0/slices=4/nr=0/decimate=1/interlaced=0/bluray_compat=1/constrained_intra=0/bframes=3/b_pyramid=1/b_adapt=2/b_bias=0/direct=1/weightb=1/open_gop=1/weightp=1/keyint=23/keyint_min=1/scenecut=40/intra_refresh=0/rc_lookahead=23/rc=2pass/mbtree=1/bitrate=30000/ratetol=1.0/qcomp=0.60/qpmin=0/qpmax=69/qpstep=4/cplxblur=20.0/qblur=0.5/vbv_maxrate=40000/vbv_bufsize=30000/nal_hrd=vbr/filler=0/ip_ratio=1.40/aq=1: 1.00
    Language : English
    Default : Yes
    Forced : No
    Color primaries : BT.709
    Transfer characteristics : BT.709
    Matrix coefficients : BT.709
    Audio #1
    ID : 2
    Format : AC-3
    Format/Info : Audio Coding 3
    Mode extension : CM (complete main)
    Format settings, Endianness : Big
    Codec ID : A_AC3
    Duration : 1h 31mn
    Bit rate mode : Constant
    Bit rate : 192 Kbps
    Channel(s) : 2 channels
    Channel positions : Front: L R
    Sampling rate : 48.0 KHz
    Bit depth : 16 bits
    Compression mode : Lossy
    Stream size : 125 MiB (1%)
    Title : AVO
    Language : Russian
    Default : Yes
    Forced : No
    Audio #2
    ID : 3
    Format : AC-3
    Format/Info : Audio Coding 3
    Mode extension : CM (complete main)
    Format settings, Endianness : Big
    Codec ID : A_AC3
    Duration : 1h 31mn
    Bit rate mode : Constant
    Bit rate : 192 Kbps
    Channel(s) : 2 channels
    Channel positions : Front: L R
    Sampling rate : 48.0 KHz
    Bit depth : 16 bits
    Compression mode : Lossy
    Stream size : 125 MiB (1%)
    Title : DVO
    Language : Russian
    Default : No
    Forced : No
    Audio #3
    ID : 4
    Format : DTS
    Format/Info : Digital Theater Systems
    Codec ID : A_DTS
    Duration : 1h 31mn
    Bit rate mode : Constant
    Bit rate : 2 048 Kbps
    Channel(s) : 2 channels
    Channel positions : Front: L R
    Sampling rate : 48.0 KHz
    Bit depth : 16 bits
    Compression mode : Lossy
    Stream size : 1.30 GiB (6%)
    Language : English
    Default : No
    Forced : No
    Audio #4
    ID : 5
    Format : AC-3
    Format/Info : Audio Coding 3
    Mode extension : CM (complete main)
    Format settings, Endianness : Big
    Codec ID : A_AC3
    Duration : 1h 31mn
    Bit rate mode : Constant
    Bit rate : 192 Kbps
    Channel(s) : 2 channels
    Channel positions : Front: L R
    Sampling rate : 48.0 KHz
    Bit depth : 16 bits
    Compression mode : Lossy
    Stream size : 125 MiB (1%)
    Title : Комментарии
    Language : English
    Default : No
    Forced : No
    Menu
    00: 00: 00.000 : en: Chapter 1
    00: 06: 49.992 : en: Chapter 2
    00: 14: 41.213 : en: Chapter 3
    00: 27: 30.231 : en: Chapter 4
    00: 36: 40.281 : en: Chapter 5
    00: 45: 41.405 : en: Chapter 6
    00: 52: 09.626 : en: Chapter 7
    01: 01: 20.093 : en: Chapter 8
    01: 06: 53.926 : en: Chapter 9
    01: 13: 19.812 : en: Chapter 10
    01: 22: 26.524 : en: Chapter 11
    01: 27: 10.558 : en: Chapter 12
    01: 31: 03.166 : en: Chapter 13


    Онлайн видео Темная сторона Луны



    Темная сторона Луны/The Dark Side of the Moon (1990) BDRemux [H.264/1080p]
    Рейтинг →
     (голосов: 1, оценка 3/5, голосовать можно 1 раз )

    Другие торренты по теме:

  • Мария Артемьева (сост.) | Темная сторона дороги [антология] (2014) [FB2]
  • 9: The Dark Side Of Notre Dame / 9. Темная сторона. Нотр-Дам де Пари (2013) [Ru] Unofficial [Collectors Edition / Коллекционное издание] скачать через торрент бесплатно
  • Олег Луканов "Ortega" | Темная сторона соблазнения 1.0 (2008) [MP3] скачать через торрент бесплатно
  • Стиг Ларссон и др. | Темная сторона Швеции [сборник] (2015) [FB2] скачать через торрент бесплатно
  • Темная сторона / Shockwave Darkside (2014) WEB-DLRip
  • Мартин Сутер | Темная сторона Луны (2015) [MP3]
  • Тарас Асачёв | Темная сторона. Воздаяние (2016) [MP3]
  • Kings Bounty: Dark Side / Kings Bounty: Темная Сторона (2014) [Ru / En / Ge] (1.5.1048.1751 / dlc) License GOG [Premium Edition]


    • Комментарии (0):

      Информация

      Информация

        Посетители, находящиеся в группе Гости, не могут оставлять комментарии в данной новости.

        ↓ Меню




        ↓ Опрос

        Вы добавили сайт в закладки?
        Да
        Нет


        Популярное