.
Авторизация | Регистрация

bitok.xyz

» » Лоро / Loro (2018) BDRemux [H.264 / 1080p] торрент скачать бесплатно


    Лоро / Loro (2018) BDRemux [H.264 / 1080p] торрент скачать бесплатно

    Дата: 18-10-2019, 05:00 | .torrent скачали: 0

    Лоро / Loro (2018) BDRemux [H.264 / 1080p]Производство: Италия, Франция/Direzione Generale Cinema, Fondazione Sardegna Film Commission, Indigo Film, OCS, Pathe, Regione Lazio
    Жанр: Биография, драма
    Режиссер: Паоло Соррентино
    Продюсер: Карлотта Калори, Франческа Чима, Никола Джулиано

    Актеры
    Тони Сервилло, Елена София Риччи, Риккардо Скамарчо, Касия Смутняк, Эвридиче Аксэн, Фабрицио Бентивольо, Роберто Де Франческо, Дарио Кантарелли, Анна Бонаюто, Джованни Эспозито

    Описание
    На закрытых вечеринках и дорогих приемах в Риме и на Сардинии его всегда окружают самые красивые и самые опасные люди, готовые на все, лишь бы получить доступ к живой легенде. Лоро (они) — это нувориши-итальянцы и их нравы, воплощение которых — тиран и весельчак, гедонист и романтик, скандальный политик и миллиардер Сильвио Берлускони.

    Возраст: 18+ (зрителям, достигшим 18 лет. запрещено для детей)
    Релиз от: NNMClub
    Продолжительность: 02: 31: 05
    Качество видео: BDRemux 1080p
    Перевод: дублированный (iTunes)
    Субтитры: Английские
    Видео: AVC/H.264, 1920x1080, 27.9 Mbps
    Аудио 1 : AC-3, 6 ch, 384 Kbps | Русский
    Аудио 2 : DTS-HD MA, 6 ch, 3458 Kbps | Итальянский
    General
    Unique ID : 263966541209930959020012330801078820077 (0xC6961B4A59CEB6B45421EF43F1495CED)
    Complete name : /Volumes/Promise Pegasus/Loro.BDRemux.1080p.pk.mkv
    Format : Matroska
    Format version : Version 4
    File size : 33.5 GiB
    Duration : 2h 31mn
    Overall bit rate mode : Variable
    Overall bit rate : 31.7 Mbps
    Movie name : Loro BDRemux 1080p pk
    Encoded date : UTC 2019-10-15 22: 20: 51
    Writing application : mkvmerge v38.0.0 (\'The Silent Type\') 64-bit
    Writing library : libebml v1.3.9 + libmatroska v1.5.2
    Video
    ID : 1
    Format : AVC
    Format/Info : Advanced Video Codec
    Format profile : High@L4.1
    Format settings : CABAC/3 Ref Frames
    Format settings, CABAC : Yes
    Format settings, ReFrames : 3 frames
    Codec ID : V_MPEG4/ISO/AVC
    Duration : 2h 31mn
    Bit rate mode : Variable
    Bit rate : 27.9 Mbps
    Maximum bit rate : 36.0 Mbps
    Width : 1 920 pixels
    Height : 1 080 pixels
    Display aspect ratio : 16: 9
    Frame rate mode : Constant
    Frame rate : 25.000 fps
    Color space : YUV
    Chroma subsampling : 4: 2: 0
    Bit depth : 8 bits
    Scan type : Progressive
    Bits/(Pixel*Frame) : 0.538
    Stream size : 29.4 GiB (88%)
    Language : Italian
    Default : Yes
    Forced : No
    Color range : Limited
    Color primaries : BT.709
    Transfer characteristics : BT.709
    Matrix coefficients : BT.709
    Audio #1
    ID : 2
    Format : AC-3
    Format/Info : Audio Coding 3
    Commercial name : Dolby Digital
    Codec ID : A_AC3
    Duration : 2h 31mn
    Bit rate mode : Constant
    Bit rate : 384 Kbps
    Channel(s) : 6 channels
    Channel layout : L R C LFE Ls Rs
    Sampling rate : 48.0 KHz
    Frame rate : 31.250 fps (1536 SPF)
    Bit depth : 16 bits
    Compression mode : Lossy
    Stream size : 415 MiB (1%)
    Title : Russian Dub iTunes
    Language : Russian
    Service kind : Complete Main
    Default : Yes
    Forced : No
    Audio #2
    ID : 3
    Format : DTS XLL
    Format/Info : Digital Theater Systems
    Commercial name : DTS-HD Master Audio
    Codec ID : A_DTS
    Duration : 2h 31mn
    Bit rate mode : Variable
    Bit rate : 3 458 Kbps
    Channel(s) : 6 channels
    Channel layout : C L R Ls Rs LFE
    Sampling rate : 48.0 KHz
    Frame rate : 93.750 fps (512 SPF)
    Bit depth : 24 bits
    Compression mode : Lossless
    Stream size : 3.65 GiB (11%)
    Title : Italian Original
    Language : Italian
    Default : No
    Forced : No
    Text
    ID : 4
    Format : UTF-8
    Codec ID : S_TEXT/UTF8
    Codec ID/Info : UTF-8 Plain Text
    Duration : 2h 21mn
    Bit rate : 60 bps
    Count of elements : 1676
    Stream size : 62.7 KiB (0%)
    Title : English full
    Language : English
    Default : Yes
    Forced : No
    Menu
    00: 00: 00.000 : en: Chapter 01
    00: 12: 11.520 : en: Chapter 02
    00: 26: 09.800 : en: Chapter 03
    00: 37: 42.680 : en: Chapter 04
    00: 51: 13.160 : en: Chapter 05
    01: 03: 55.280 : en: Chapter 06
    01: 11: 24.880 : en: Chapter 07
    01: 28: 30.040 : en: Chapter 08
    01: 38: 57.800 : en: Chapter 09
    01: 51: 50.240 : en: Chapter 10
    02: 01: 46.800 : en: Chapter 11
    02: 18: 15.760 : en: Chapter 12

    Скриншоты для ознакомления



    Все одноименные релизы в Клубе
    Время раздачи: 24/7 (круглосуточно) (до появления первых 3-5 скачавших)

    Онлайн видео Лоро



    Лоро/Loro (2018) BDRemux [H.264/1080p]
    Рейтинг →
     (голосов: 1, оценка 4/5, голосовать можно 1 раз )

    Другие торренты по теме:

  • Лоро / Loro (2018) WEB-DL [H.264 / 1080p-LQ]
  • Лоро / Loro (2018) WEB-DLRip
  • Лоро / Loro (2018) WEB-DL [1080p] ATV
  • Лоро / Loro (2018) BDRip [H.264]
  • Лоро / Loro (2018) BDRip [H.264 / 1080p]
  • Лоро / Loro (2018) BDRip [H.264 / 720p]


    • Комментарии (0):

      Информация

      Информация

        Посетители, находящиеся в группе Гости, не могут оставлять комментарии в данной новости.

        ↓ Меню




        ↓ Опрос

        Вы добавили сайт в закладки?
        Да
        Нет


        Популярное

        Рим / Rome (2005-2007) BDRip [H.264 / 1080p] (сезон 1-2, серии 1-22 из 22) LostFilm, НТВ+

        (скачиваний: 320)
        Звездочет (2004) DVDRip (серии 1-12 из 12)

        (скачиваний: 184)
        Во все тяжкие / Breaking Bad (2008-2013) BDRip [H.264 / 1080p] (сезон 1-5, серии 1-62 из 62) Кубик в Кубе, LostFilm скачать через торрент бесплатно

        (скачиваний: 166)
        Дылды (2019) WEB-DL [H.264 / 1080p-LQ] (сезон 1, серии 1 из 21) (обновляемая)

        (скачиваний: 164)
        Горе от ума (1977) DVD5 (Малый Театр)

        (скачиваний: 151)
        Солдаты (2004-2013) DVDRip / SATRip (сезон 1-17 + Дембельский альбом, серии 1-633 из 633) скачать через торрент бесплатно

        (скачиваний: 133)
        След (2007-2019) SATRip (серии 1-2135)

        (скачиваний: 109)
        Властелин колец / The Lord of the Rings (2001,2002,2003) BDRip [1080p] [Extended Edition] [Трилогия]

        (скачиваний: 93)
        Кремниевая долина / Silicon Valley (2014) HDTVRip (сезон 1, серии 1-8 из 8) Кубик в Кубе скачать через торрент бесплатно

        (скачиваний: 93)
        Друзья / Friends (1994-2004) BDRip (сезон 1-10, серии 1-236 из 236) РТР скачать через торрент бесплатно

        (скачиваний: 80)