.
Авторизация | Регистрация

bitok.xyz

» » Ион Друцэ - Птицы нашей молодости (2 части) (1974) SATRip (Государственный Академический Малый театр) торрент скачать бесплатно


    Ион Друцэ - Птицы нашей молодости (2 части) (1974) SATRip (Государственный Академический Малый театр) торрент скачать бесплатно

    Дата: 18-10-2019, 05:00 | .torrent скачали: 0

    Ион Друцэ - Птицы нашей молодости (2 части) (1974) SATRip (Государственный Академический Малый театр)Производство: СССР, ЦТ, Государственный Академический Малый театр
    Жанр: Телеспектакль, драма
    Режиссер: Борис Равенских, Ион Унгуряну

    Актеры
    Руфина Нифонтова, Виталий Доронин, Юрий Каюров, Нелли Корниенко, Алексей Локтев, Валерий Носик, Мария Овчинникова (II), Елизавета Солодова, Людмила Щербинина

    Описание

    Пьеса Иона Друцэ Птицы нашей молодости шла во многих театрах. И следует ее признать одной из наиболее значительных среди произведений современных драматургов. Премьера в Малом театре состоялась в 1972 году.
    На краю молдавского села живет старая мудрая и бесконечно одинокая тетушка Руца. Она всегда стремится помочь односельчанам, подбодрить их, дать им полезный совет. Нелегко было ей простить давнюю обиду, но она находит в себе силы забыть ее и навещает умирающего родственника, чтобы облегчить последние часы его жизни...
    Релиз:
    Продолжительность: 01: 05: 33 + 01: 02: 25
    Качество видео: SATRip
    Субтитры: отсутствуют
    Видео: XviD, 688 x 512, ~1800 Кбит/с
    Аудио: MP3, 2 ch, 128 Кбит/с Код: выделить все
    Общее
    Полное имя : Ptici.nashei.molodosti.(2.serii.iz.2).1974.XviD.SATRip.fenixclubPtici.nashei.molodosti.(1.seriya.iz.2).1974.XviD.SATRip.fenixclub.avi
    Формат : AVI
    Формат/Информация : Audio Video Interleave
    Размер файла : 908 Мбайт
    Продолжительность : 1 ч. 5 м.
    Общий поток : 1937 Кбит/сек
    Режиссёр : SATrip by Animat
    Программа кодирования : VirtualDubMod 1.5.10.2 (build 2540/release)
    Библиотека кодирования : VirtualDubMod build 2540/release
    Видео
    Идентификатор : 0
    Формат : MPEG-4 Visual
    Профиль формата : Advanced Simple@L5
    Настройки формата : BVOP2
    Параметр BVOP формата : 2
    Параметр QPel формата : Нет
    Параметр GMC формата : Без точки перехода
    Параметр матрицы формата : Default (MPEG)
    Режим смешивания : Сжатый битовый поток
    Идентификатор кодека : XVID
    Идентификатор кодека/Подсказка : XviD
    Продолжительность : 1 ч. 5 м.
    Битрейт : 1799 Кбит/сек
    Ширина : 688 пикселей
    Высота : 512 пикселей
    Соотношение сторон : 4:3
    Частота кадров : 25, 000 кадров/сек
    Цветовое пространство : YUV
    Субдискретизация насыщенности : 4:2:0
    Битовая глубина : 8 бит
    Тип развёртки : Прогрессивная
    Метод сжатия : С потерями
    Бит/(Пиксели*Кадры) : 0.204
    Размер потока : 844 Мбайт (93%)
    Библиотека кодирования : XviD 1.1.2 (UTC 2006-11-01)
    Аудио
    Идентификатор : 1
    Формат : MPEG Audio
    Версия формата : Version 1
    Профиль формата : Layer 3
    Настройки формата : Joint stereo
    Идентификатор кодека : 55
    Идентификатор кодека/Подсказка : MP3
    Продолжительность : 1 ч. 5 м.
    Вид битрейта : Постоянный
    Битрейт : 128 Кбит/сек
    Каналы : 2 канала
    Частота : 48, 0 КГц
    Метод сжатия : С потерями
    Размер потока : 60, 0 Мбайт (7%)
    Выравнивание : Соединение по промежуткам
    Продолжительность промежутка : 40 мс. (1, 00 видеокадр)
    Время предзагрузки промежутка : 504 мс.
    Скриншоты


    Время раздачи: По возможности (до 3 скачавших)

    Онлайн видео Ион Друцэ



    Ион Друцэ - Птицы нашей молодости (2 части) (1974) SATRip (Государственный Академический Малый театр)
    Рейтинг →
     (голосов: 1, оценка 5/5, голосовать можно 1 раз )

    Другие торренты по теме:



      Комментарии (0):

      Информация

      Информация

        Посетители, находящиеся в группе Гости, не могут оставлять комментарии в данной новости.

        ↓ Меню




        ↓ Опрос

        Вы добавили сайт в закладки?
        Да
        Нет


        Популярное

        Рим / Rome (2005-2007) BDRip [H.264 / 1080p] (сезон 1-2, серии 1-22 из 22) LostFilm, НТВ+

        (скачиваний: 320)
        Звездочет (2004) DVDRip (серии 1-12 из 12)

        (скачиваний: 184)
        Во все тяжкие / Breaking Bad (2008-2013) BDRip [H.264 / 1080p] (сезон 1-5, серии 1-62 из 62) Кубик в Кубе, LostFilm скачать через торрент бесплатно

        (скачиваний: 166)
        Дылды (2019) WEB-DL [H.264 / 1080p-LQ] (сезон 1, серии 1 из 21) (обновляемая)

        (скачиваний: 164)
        Горе от ума (1977) DVD5 (Малый Театр)

        (скачиваний: 151)
        Солдаты (2004-2013) DVDRip / SATRip (сезон 1-17 + Дембельский альбом, серии 1-633 из 633) скачать через торрент бесплатно

        (скачиваний: 133)
        След (2007-2019) SATRip (серии 1-2135)

        (скачиваний: 109)
        Властелин колец / The Lord of the Rings (2001,2002,2003) BDRip [1080p] [Extended Edition] [Трилогия]

        (скачиваний: 93)
        Кремниевая долина / Silicon Valley (2014) HDTVRip (сезон 1, серии 1-8 из 8) Кубик в Кубе скачать через торрент бесплатно

        (скачиваний: 93)
        Друзья / Friends (1994-2004) BDRip (сезон 1-10, серии 1-236 из 236) РТР скачать через торрент бесплатно

        (скачиваний: 80)