.
Авторизация | Регистрация

bitok.xyz

» » Смотрящая вдаль (2019) WEBRip (сезон 1, серии 1-12 из 12) торрент скачать бесплатно


    Смотрящая вдаль (2019) WEBRip (сезон 1, серии 1-12 из 12) торрент скачать бесплатно

    Дата: 18-10-2019, 05:00 | .torrent скачали: 0

    Смотрящая вдаль (2019) WEBRip (сезон 1, серии 1-12 из 12)Производство: Украина/Интра Фильм
    Жанр: детектив, мистика
    Режиссер: Владимир Мельниченко

    Актеры
    Елена Радевич, Антон Батырев, Кирилл Жандаров, Сергей Деревянко, Светлана Зельбет, Константин Октябрьский, Сергей Деньга, Руслан Мирошниченко, Руслан Коваль, Владимир Гончаров и др.

    Описание

    Анна обладает редким даром - она может предвидеть будущее. Накануне свадьбы Анна узнает, что ее жених Александр арестован. Его обвиняют в перевозке крупной партии наркотиков. Александр сбегает, чтобы иметь возможность доказать свою невиновность. Анна видит страшные картины из будущего, как ее любимого убивают, но она не может разглядеть лицо преступника. У Анны мало времени и за помощью она обращается к близкому другу детства Алексею, который работает в полиции.
    Дата мировой премьеры: 7 октября 2019 (СТБ, Украина)
    Продолжительность: ~00: 51: 00 серия
    Качество видео: WEBRip
    Язык озвучки: русский
    Видео: Xvid, 720x400 (16: 9), ~1008 kbps
    Аудио: AC3, 2 ch, 192 kbps
    General
    Complete name : D: Мои фильмыSmotrjawaja_vdal\'_S1_1-12iz12_2019_XviD_WEBRipSmotrjawaja_vdal\'_S1_01.avi
    Format : AVI
    Format/Info : Audio Video Interleave
    File size : 446 MiB
    Duration : 51 min 30 s
    Overall bit rate : 1 210 kb/s
    Writing application : VirtualDubMod 1.5.10.3 |www.virtualdub-fr.org|| (build 2550/release)
    Writing library : VirtualDub build 40716/release
    Video
    ID : 0
    Format : MPEG-4 Visual
    Format profile : Advanced Simple@L5
    Format settings : BVOP2
    Format settings, BVOP : 2
    Format settings, QPel : No
    Format settings, GMC : No warppoints
    Format settings, Matrix : Default (H.263)
    Codec ID : XVID
    Codec ID/Hint : XviD
    Duration : 51 min 30 s
    Bit rate : 1 008 kb/s
    Width : 720 pixels
    Height : 400 pixels
    Display aspect ratio : 16: 9
    Frame rate : 25.000 FPS
    Color space : YUV
    Chroma subsampling : 4: 2: 0
    Bit depth : 8 bits
    Scan type : Progressive
    Compression mode : Lossy
    Bits/(Pixel*Frame) : 0.140
    Stream size : 371 MiB (83%)
    Writing library : XviD 67
    Audio
    ID : 1
    Format : AC-3
    Format/Info : Audio Coding 3
    Commercial name : Dolby Digital
    Codec ID : 2000
    Duration : 51 min 30 s
    Bit rate mode : Constant
    Bit rate : 192 kb/s
    Channel(s) : 2 channels
    Channel layout : L R
    Sampling rate : 48.0 kHz
    Frame rate : 31.250 FPS (1536 SPF)
    Bit depth : 16 bits
    Compression mode : Lossy
    Stream size : 70.7 MiB (16%)
    Alignment : Aligned on interleaves
    Interleave, duration : 40 ms (1.00 video frame)
    Interleave, preload duration : 512 ms
    Service kind : Complete Main

    Скриншоты для ознакомления



    Все одноименные релизы в Клубе
    Время раздачи: с 07: 00 до 23: 00 (до появления первых 3-5 скачавших)

    Онлайн видео Смотрящая вдаль (2019) WEBRip (сезон любимого сериала 1, серии 1



    Смотрящая вдаль (2019) WEBRip (сезон 1, серии 1-12 из 12)
    Рейтинг →
     (голосов: 1, оценка 5/5, голосовать можно 1 раз )

    Другие торренты по теме:

  • Смотрящая вдаль (2019) WEB-DLRip [H.264] (сезон 1, серии 1-8 из 12) (обновляемая)


    • Комментарии (0):

      Информация

      Информация

        Посетители, находящиеся в группе Гости, не могут оставлять комментарии в данной новости.

        ↓ Меню




        ↓ Опрос

        Вы добавили сайт в закладки?
        Да
        Нет


        Популярное

        Рим / Rome (2005-2007) BDRip [H.264 / 1080p] (сезон 1-2, серии 1-22 из 22) LostFilm, НТВ+

        (скачиваний: 320)
        Звездочет (2004) DVDRip (серии 1-12 из 12)

        (скачиваний: 184)
        Во все тяжкие / Breaking Bad (2008-2013) BDRip [H.264 / 1080p] (сезон 1-5, серии 1-62 из 62) Кубик в Кубе, LostFilm скачать через торрент бесплатно

        (скачиваний: 166)
        Дылды (2019) WEB-DL [H.264 / 1080p-LQ] (сезон 1, серии 1 из 21) (обновляемая)

        (скачиваний: 164)
        Горе от ума (1977) DVD5 (Малый Театр)

        (скачиваний: 151)
        Солдаты (2004-2013) DVDRip / SATRip (сезон 1-17 + Дембельский альбом, серии 1-633 из 633) скачать через торрент бесплатно

        (скачиваний: 133)
        След (2007-2019) SATRip (серии 1-2135)

        (скачиваний: 109)
        Властелин колец / The Lord of the Rings (2001,2002,2003) BDRip [1080p] [Extended Edition] [Трилогия]

        (скачиваний: 93)
        Кремниевая долина / Silicon Valley (2014) HDTVRip (сезон 1, серии 1-8 из 8) Кубик в Кубе скачать через торрент бесплатно

        (скачиваний: 93)
        Друзья / Friends (1994-2004) BDRip (сезон 1-10, серии 1-236 из 236) РТР скачать через торрент бесплатно

        (скачиваний: 80)