.
Авторизация | Регистрация
bitok.xyz
» » Сверх(НЕ)естественное / Extra Ordinary (2019) WEB-DLRip торрент скачать бесплатно


    Сверх(НЕ)естественное / Extra Ordinary (2019) WEB-DLRip торрент скачать бесплатно

    Дата: 21-10-2019, 05:00 | .torrent скачали: 0

    Сверх(НЕ)естественное / Extra Ordinary (2019) WEB-DLRipПроизводство: Ирландия, Бельгия, Blinder Films, Epic Pictures Group
    Жанр: Комедия, ужасы, фэнтези
    Режиссер: Майк Ахерн, Энда Логман

    Актеры
    Маив Хиггинс, Бэрри Уорд, Уилл Форте, Клаудия О`Доэрти, Джэми Бимиш, Terri Chandler, Ристерд Купер, Emma Coleman, Кэрри Краули, Мэри МакЭвой

    Описание

    Скромная Роуз обладает экстрасенсорными способностями, но соседи достают ее лишь просьбами изгнать духов надоедливых родственников. Однажды в ее родном городке объявляется рок-звезда Кристиан Уинтер. Наделенный дьявольской силой, он околдовывает местную девушку, и ее отец в отчаянии просит Роуз о помощи. У героини появляется шанс раскрыть свой дар, а заодно устроить личную жизнь.

    Возраст: 18+ (зрителям, достигшим 18 лет. запрещено для детей)
    Рейтинг MPAA: R (лицам до 17 лет обязательно присутствие взрослого)
    Дата мировой премьеры: 10 марта 2019
    Цифровой релиз: 18 октября 2019, Вольга
    Продолжительность: 01: 34: 09
    Качество видео: WEB-DLRip
    Перевод: Дублированный (iTunes )
    Субтитры: Отсутствуют
    Видео: Xvid, 720x304, ~1809 Kbps
    Аудио: AC3, 6 ch, 384 Kbps
    Общее
    Полное имя : C: UsersSTOTIKDownloadsExtra.Ordinary.2019.D.WEB-DRip.1.45Gb.avi
    Формат : AVI
    Формат/Информация : Audio Video Interleave
    Размер файла : 1, 45 Гбайт
    Продолжительность : 1 ч. 34 м.
    Общий поток : 2202 Кбит/сек
    Название фильма : C
    Программа кодирования : V
    Формат оригинала/Имя : M
    Видео
    Идентификатор : 0
    Формат : MPEG-4 Visual
    Профиль формата : Advanced Simple@L5
    Настройки формата : BVOP2
    Параметр BVOP формата : 2
    Параметр QPel формата : Нет
    Параметр GMC формата : Без точки перехода
    Параметр матрицы формата : Default (MPEG)
    Идентификатор кодека : XVID
    Идентификатор кодека/Подсказка : XviD
    Продолжительность : 1 ч. 34 м.
    Битрейт : 1809 Кбит/сек
    Ширина : 720 пикселей
    Высота : 304 пикселя
    Соотношение сторон : 2, 35: 1
    Частота кадров : 24, 000 кадра/сек
    Цветовое пространство : YUV
    Субдискретизация насыщенности : 4: 2: 0
    Битовая глубина : 8 бит
    Тип развёртки : Прогрессивная
    Метод сжатия : С потерями
    Бит/(Пиксели*Кадры) : 0.344
    Размер потока : 1, 19 Гбайт (82%)
    Библиотека кодирования : XviD 1.2.1 (UTC 2008-12-04)
    Аудио
    Идентификатор : 1
    Формат : AC-3
    Формат/Информация : Audio Coding 3
    Коммерческое название : Dolby Digital
    Идентификатор кодека : 2000
    Продолжительность : 1 ч. 34 м.
    Вид битрейта : Постоянный
    Битрейт : 384 Кбит/сек
    Каналы : 6 каналов
    ChannelLayout : L R C LFE Ls Rs
    Частота : 48, 0 КГц
    Частота кадров : 31, 250 кадров/сек (1536 SPF)
    Битовая глубина : 16 бит
    Метод сжатия : С потерями
    Размер потока : 259 Мбайт (17%)
    Выравнивание : Разделение по промежуткам
    Продолжительность промежутка : 42 мс. (1, 00 видеокадр)
    Время предзагрузки промежутка : 500 мс.
    ServiceKind/String : Complete Main

    Скриншоты для ознакомления



    Все одноименные релизы в Клубе
    Время раздачи: 24/7 (до появления первых 3-5 скачавших)

    Онлайн видео Сверх(НЕ)естественное



    Сверх(НЕ)естественное/Extra Ordinary (2019) WEB-DLRip
    Рейтинг →
     (голосов: 1, оценка 3/5, голосовать можно 1 раз )

    Другие торренты по теме:

  • Сверх(НЕ)естественное / Extra Ordinary (2019) WEB-DL [H.264 / 1080p-LQ]
  • Сверх(НЕ)естественное / Extra Ordinary (2019) BDRip [H.265 / 1080p] [10-bit] [PR]
  • Сверх(НЕ)естественное / Extra Ordinary (2019) BDRip [H.265 / 720p] [PR]
  • Сверх(НЕ)естественное / Extra Ordinary (2019) BDRip [H.265] [10-bit]
  • Сверх(НЕ)естественное / Extra Ordinary (2019) BDRemux [H.264 / 1080p]
  • Сверх(НЕ)естественное / Extra Ordinary (2019) BDRip [H.264 / 1080p]


    • Комментарии (0):

      Информация

      Информация

        Посетители, находящиеся в группе Гости, не могут оставлять комментарии в данной новости.

        ↓ Меню




        ↓ Опрос

        Вы добавили сайт в закладки?
        Да
        Нет


        Популярное