.
Авторизация | Регистрация
bitok.xyz
Торрент скачать бесплатно Фильмы торрент скачать Адская кухня / The Kitchen (2019) HDRip [MVO] [AD] торрент скачать бесплатно


    Адская кухня / The Kitchen (2019) HDRip [MVO] [AD] торрент скачать бесплатно

    Дата: 25-10-2019, 05:00 | .torrent скачали: 7

    Адская кухня / The Kitchen (2019) HDRip [MVO] [AD]Производство: США/BRON Studios, Creative Wealth Media Finance, DC Vertigo
    Жанр: Боевик, драма, криминал
    Режиссер: Андреа Берлофф

    Актеры
    Мелисса Маккарти, Тиффани Хэддиш, Элизабет Мосс, Донал Глисон, Джеймс Бэдж Дэйл, Брайан Д\'Арси Джеймс, Джереми Бобб, Марго Мартиндейл, Билл Кэмп, Коммон

    Описание

    История трёх домохозяек, проживающих в нью-йоркском районе Адская кухня, чьих мужей-мафиози ФБР посадило в тюрьму. Дело происходит в 1978 году, у этих дам нет ничего, кроме желания добиться своего, взяв дела ирландской мафии в свои руки. Оказывается, что и тут они чувствуют себя как рыба в воде во всём: от рэкета до устранения конкурентов… в буквальном смысле.

    Возраст: 16+ (зрителям, достигшим 16 лет)
    Рейтинг MPAA: R (лицам до 17 лет обязательно присутствие взрослого)
    Дата мировой премьеры: 8 августа 2019
    Продолжительность: 01: 42: 33
    Качество видео: HDRip
    Перевод: Многоголосый закадровый, любительский (AlphaProject)
    Субтитры: Отсутствуют
    Реклама: Присутствует баннер.
    Видео: XviD, 720x304, ~1623 Kbps
    Аудио: AC-3, 2 ch, 256 Kbps
    Общее
    Полное имя : D: NNMАдская кухняThe.Kitchen.2019.HDRip.avi
    Формат : AVI
    Формат/Информация : Audio Video Interleave
    Профиль формата : OpenDML
    Размер файла : 1, 35 Гбайт
    Продолжительность : 1 ч. 42 м.
    Общий поток : 1891 Кбит/сек
    Видео
    Идентификатор : 0
    Формат : MPEG-4 Visual
    Профиль формата : Advanced Simple@L5
    Настройки формата : BVOP2/Custom Matrix
    Параметр BVOP формата : 2
    Параметр QPel формата : Нет
    Параметр GMC формата : Без точки перехода
    Параметр матрицы формата : Выборочная
    Идентификатор кодека : XVID
    Идентификатор кодека/Подсказка : XviD
    Продолжительность : 1 ч. 42 м.
    Битрейт : 1623 Кбит/сек
    Ширина : 720 пикселей
    Высота : 304 пикселя
    Соотношение сторон : 2, 35: 1
    Частота кадров : 23, 976 (24000/1001) кадра/сек
    Цветовое пространство : YUV
    Субдискретизация насыщенности : 4: 2: 0
    Битовая глубина : 8 бит
    Тип развёртки : Прогрессивная
    Метод сжатия : С потерями
    Бит/(Пиксели*Кадры) : 0.309
    Размер потока : 1, 16 Гбайт (86%)
    Библиотека кодирования : XviD 1.2.1 (UTC 2008-12-04)
    Аудио
    Идентификатор : 1
    Формат : AC-3
    Формат/Информация : Audio Coding 3
    Коммерческое название : Dolby Digital
    Идентификатор кодека : 2000
    Продолжительность : 1 ч. 42 м.
    Вид битрейта : Постоянный
    Битрейт : 256 Кбит/сек
    Каналы : 2 канала
    ChannelLayout : M M
    Частота : 48, 0 КГц
    Частота кадров : 31, 250 кадров/сек (1536 SPF)
    Битовая глубина : 16 бит
    Метод сжатия : С потерями
    Размер потока : 188 Мбайт (14%)
    Выравнивание : Соединение по промежуткам
    Продолжительность промежутка : 32 мс. (0, 77 видеокадр)
    ServiceKind/String : Complete Main

    Скриншоты для ознакомления



    Все одноименные релизы в Клубе Время раздачи: 24/7 (до появления первых 3-5 скачавших)

    Онлайн видео Адская кухня


    Адская кухня / The Kitchen (2019) HDRip [MVO] [AD] торрент скачать бесплатно
    Рейтинг →
     (голосов: 1, оценка 4/5, голосовать можно 1 раз )

    Другие торренты по теме:

  • Адская кухня / Paradise Alley (1978) BDRip [H.264]
  • Адская кухня с Константином Ивлевым (2017) WEB-DLRip [H.264 / 720p-LQ] (сезон 1, выпуски 1-15 из 15 + Спецвыпуск)
  • Адская кухня / The Kitchen (2019) BDRip [H.264 / 720p-LQ] [MVO] [AD]
  • Адская кухня / The Kitchen (2019) BDRip [H.264 / 1080p] [PR]
  • Адская кухня / The Kitchen (2019) BDRip
  • Адская кухня / The Kitchen (2019) BDRemux [H.264 / 1080p]
  • Адская кухня / The Kitchen (2019) HDRip [H.265] [10-bit]
  • Адская кухня с Константином Ивлевым (2018) WEB-DLRip [H.264 / 720p-LQ] (сезон 2, выпуски 1-17 из 17) [PR]


    • Комментарии (0):

      Информация

      Информация

        Посетители, находящиеся в группе Гости, не могут оставлять комментарии в данной новости.

        ↓ Меню




        ↓ Опрос

        Вы добавили сайт в закладки?
        Да
        Нет


        Популярное