.
Авторизация | Регистрация

bitok.xyz

» » Yesterday / Yesterday (2019) BDRip [H.264 / 1080p] торрент скачать бесплатно


    Yesterday / Yesterday (2019) BDRip [H.264 / 1080p] торрент скачать бесплатно

    Дата: 26-10-2019, 05:00 | .torrent скачали: 0

    Yesterday / Yesterday (2019) BDRip [H.264 / 1080p]Производство: Великобритания, Россия, Китай/Etalon Film, Working Title Films
    Жанр: Мюзикл, фэнтези, мелодрама, комедия, музыка
    Режиссер: Дэнни Бойл
    Продюсер: Бернард Беллью, Тим Беван, Дэнни Бойл

    Актеры
    Химеш Патель, Лили Джеймс, Джоэль Фрай, Эд Ширан, Кейт Маккиннон, Мира Сайал, Санджив Бхаскар, Софи Ди Мартино, Эллиз Шаппелль, Гарри Мишель

    Описание
    Еще месяц назад Джек был обычным неудачником. Теперь он суперзвезда, миллионы людей слушают его песни, билеты на концерты раскупаются за секунду. В чем секрет? Все просто. Джек — единственный человек в мире, кто помнит о существовании The Beatles.

    Возраст: 12+ Зрителям, достигшим 12 лет
    Рейтинг MPAA: PG-13 Детям до 13 просмотр не желателен
    Дата мировой премьеры: 4 мая 2019
    Дата российской премьеры: 19 сентября 2019, UPI
    Цифровой релиз: 14 ноября 2019, Universal
    Релиз от: NNMClub
    Продолжительность: 01: 56: 14
    Качество видео: BDRip 1080p
    Перевод: Дублированный(Лицензия BD EUR)
    Субтитры: Русские (Forced, Songs, BD EUR, Focs), Английские (Full, SDH)
    Видео: AVC/H.264, 1920x804, 7500 Kbps, 23.976 fps
    Аудио 1 : AC-3, 6 ch, 640 Kbps | Русский
    Аудио 2 : AC-3, 6 ch, 448 Kbps | Английский
    General
    Unique ID : 59361761522289266764155869225285943552 (0x2CA8A8CEE139FBF960A2AD92FE458100)
    Complete name : /Volumes/Promise 2/Yesterday.BDRip.1080p.pk.mkv
    Format : Matroska
    Format version : Version 4
    File size : 6.97 GiB
    Duration : 1h 56mn
    Overall bit rate : 8 586 Kbps
    Movie name : Yesterday BDRip 1080p Kosatka
    Encoded date : UTC 2019-10-24 22: 52: 10
    Writing application : mkvmerge v38.0.0 (\'The Silent Type\') 64-bit
    Writing library : libebml v1.3.9 + libmatroska v1.5.2
    Video
    ID : 1
    Format : AVC
    Format/Info : Advanced Video Codec
    Format profile : High@L4.1
    Format settings : CABAC/5 Ref Frames
    Format settings, CABAC : Yes
    Format settings, ReFrames : 5 frames
    Codec ID : V_MPEG4/ISO/AVC
    Duration : 1h 56mn
    Bit rate : 7 500 Kbps
    Width : 1 920 pixels
    Height : 804 pixels
    Display aspect ratio : 2.40: 1
    Frame rate mode : Constant
    Frame rate : 23.976 (24000/1001) fps
    Color space : YUV
    Chroma subsampling : 4: 2: 0
    Bit depth : 8 bits
    Scan type : Progressive
    Bits/(Pixel*Frame) : 0.203
    Stream size : 6.09 GiB (87%)
    Writing library : x264 core 157 r2935 545de2f
    Encoding settings : cabac=1/ref=5/deblock=1: -3: -3/analyse=0x3: 0x113/me=umh/subme=9/psy=1/psy_rd=1.00: 0.00/mixed_ref=1/me_range=32/chroma_me=1/trellis=2/8x8dct=1/cqm=0/deadzone=21, 11/fast_pskip=0/chroma_qp_offset=-2/threads=25/lookahead_threads=6/sliced_threads=0/nr=0/decimate=0/interlaced=0/bluray_compat=0/constrained_intra=0/bframes=12/b_pyramid=2/b_adapt=2/b_bias=0/direct=1/weightb=0/open_gop=0/weightp=2/keyint=240/keyint_min=24/scenecut=40/intra_refresh=0/rc_lookahead=75/rc=2pass/mbtree=0/bitrate=7500/ratetol=1.0/qcomp=0.65/qpmin=0/qpmax=69/qpstep=4/cplxblur=20.0/qblur=0.5/vbv_maxrate=62500/vbv_bufsize=78125/nal_hrd=none/filler=0/ip_ratio=1.30/pb_ratio=1.20/aq=1: 1.10
    Language : English
    Default : Yes
    Forced : No
    Color range : Limited
    Color primaries : BT.709
    Transfer characteristics : BT.709
    Matrix coefficients : BT.709
    Audio #1
    ID : 2
    Format : AC-3
    Format/Info : Audio Coding 3
    Commercial name : Dolby Digital
    Codec ID : A_AC3
    Duration : 1h 56mn
    Bit rate mode : Constant
    Bit rate : 640 Kbps
    Channel(s) : 6 channels
    Channel layout : L R C LFE Ls Rs
    Sampling rate : 48.0 KHz
    Frame rate : 31.250 fps (1536 SPF)
    Bit depth : 16 bits
    Compression mode : Lossy
    Stream size : 532 MiB (7%)
    Title : Russian Dub License BD EUR
    Language : Russian
    Service kind : Complete Main
    Default : Yes
    Forced : No
    Audio #2
    ID : 3
    Format : AC-3
    Format/Info : Audio Coding 3
    Commercial name : Dolby Digital
    Codec ID : A_AC3
    Duration : 1h 56mn
    Bit rate mode : Constant
    Bit rate : 448 Kbps
    Channel(s) : 6 channels
    Channel layout : L R C LFE Ls Rs
    Sampling rate : 48.0 KHz
    Frame rate : 31.250 fps (1536 SPF)
    Bit depth : 16 bits
    Compression mode : Lossy
    Stream size : 372 MiB (5%)
    Title : English Original
    Language : English
    Service kind : Complete Main
    Default : No
    Forced : No
    Text #1
    ID : 4
    Format : UTF-8
    Codec ID : S_TEXT/UTF8
    Codec ID/Info : UTF-8 Plain Text
    Duration : 1h 55mn
    Bit rate : 0 bps
    Count of elements : 19
    Stream size : 559 Bytes (0%)
    Title : Russian forced
    Language : Russian
    Default : Yes
    Forced : Yes
    Text #2
    ID : 5
    Format : UTF-8
    Codec ID : S_TEXT/UTF8
    Codec ID/Info : UTF-8 Plain Text
    Duration : 1h 47mn
    Bit rate : 13 bps
    Count of elements : 204
    Stream size : 10.3 KiB (0%)
    Title : Russian Songs
    Language : Russian
    Default : No
    Forced : No
    Text #3
    ID : 6
    Format : UTF-8
    Codec ID : S_TEXT/UTF8
    Codec ID/Info : UTF-8 Plain Text
    Duration : 1h 55mn
    Bit rate : 93 bps
    Count of elements : 1641
    Stream size : 79.2 KiB (0%)
    Title : Russian full BD EUR
    Language : Russian
    Default : No
    Forced : No
    Text #4
    ID : 7
    Format : UTF-8
    Codec ID : S_TEXT/UTF8
    Codec ID/Info : UTF-8 Plain Text
    Duration : 1h 51mn
    Bit rate : 107 bps
    Count of elements : 2093
    Stream size : 87.4 KiB (0%)
    Title : Russian full FOCS
    Language : Russian
    Default : No
    Forced : No
    Text #5
    ID : 8
    Format : UTF-8
    Codec ID : S_TEXT/UTF8
    Codec ID/Info : UTF-8 Plain Text
    Duration : 1h 55mn
    Bit rate : 79 bps
    Count of elements : 2244
    Stream size : 67.1 KiB (0%)
    Title : English full
    Language : English
    Default : No
    Forced : No
    Text #6
    ID : 9
    Format : UTF-8
    Codec ID : S_TEXT/UTF8
    Codec ID/Info : UTF-8 Plain Text
    Duration : 1h 55mn
    Bit rate : 86 bps
    Count of elements : 2439
    Stream size : 73.0 KiB (0%)
    Title : English SDH
    Language : English
    Default : No
    Forced : No
    Menu
    00: 00: 00.000 : : Chapter 01
    00: 06: 16.668 : : Chapter 02
    00: 11: 19.679 : : Chapter 03
    00: 16: 13.097 : : Chapter 04
    00: 21: 28.287 : : Chapter 05
    00: 27: 04.540 : : Chapter 06
    00: 33: 31.885 : : Chapter 07
    00: 38: 55.083 : : Chapter 08
    00: 45: 53.250 : : Chapter 09
    00: 48: 17.061 : : Chapter 10
    00: 56: 24.339 : : Chapter 11
    01: 03: 47.490 : : Chapter 12
    01: 09: 16.486 : : Chapter 13
    01: 14: 17.078 : : Chapter 14
    01: 19: 04.615 : : Chapter 15
    01: 24: 10.587 : : Chapter 16
    01: 31: 51.923 : : Chapter 17
    01: 36: 00.588 : : Chapter 18
    01: 40: 03.247 : : Chapter 19
    01: 46: 51.947 : : Chapter 20

    x264 info: frame I: 1493 Avg QP: 13.61 size: 171224
    x264 info: frame P: 46502 Avg QP: 14.87 size: 64673
    x264 info: frame B: 119221 Avg QP: 15.56 size: 27440
    x264 info: consecutive B-frames: 5.2% 7.0% 21.2% 22.0% 9.7% 29.9% 1.4% 1.0% 0.8% 0.3% 0.3% 0.3% 0.9%
    x264 info: mb I I16..4: 9.2% 79.3% 11.6%
    x264 info: mb P I16..4: 5.7% 19.6% 2.1% P16..4: 34.7% 20.0% 9.5% 0.0% 0.0% skip: 8.4%
    x264 info: mb B I16..4: 1.5% 2.8% 0.3% B16..8: 37.4% 13.3% 3.3% direct: 9.8% skip: 31.6% L0: 45.3% L1: 42.4% BI: 12.3%
    x264 info: 8x8 transform intra: 69.2% inter: 53.8%
    x264 info: coded y, uvDC, uvAC intra: 62.0% 89.2% 80.6% inter: 24.7% 43.4% 27.4%
    x264 info: i16 v, h, dc, p: 58% 11% 6% 24%
    x264 info: i8 v, h, dc, ddl, ddr, vr, hd, vl, hu: 19% 12% 22% 6% 8% 9% 8% 9% 8%
    x264 info: i4 v, h, dc, ddl, ddr, vr, hd, vl, hu: 28% 11% 13% 7% 10% 10% 8% 7% 6%
    x264 info: i8c dc, h, v, p: 52% 16% 18% 14%
    x264 info: Weighted P-Frames: Y: 3.6% UV: 2.7%
    x264 info: ref P L0: 54.2% 8.5% 20.3% 8.4% 8.1% 0.6% 0.0%
    x264 info: ref B L0: 71.5% 18.3% 8.1% 2.1%
    x264 info: ref B L1: 93.6% 6.4%
    x264 info: kb/s: 7495.46

    Скриншоты для ознакомления



    Все одноименные релизы в Клубе
    Время раздачи: 24/7 (круглосуточно) (до появления первых 3-5 скачавших)

    Онлайн видео Yesterday



    Yesterday/Yesterday (2019) BDRip [H.264/1080p]
    Рейтинг →
     (голосов: 1, оценка 4/5, голосовать можно 1 раз )

    Другие торренты по теме:

  • Yesterday / Yesterday: Печать Люцифера (2012) [Ru / Multi] (1.0.0.1) License PROPHET
  • Yesterday / Yesterday (2019) HDRip [AD]
  • Yesterday / Yesterday (2019) BDRip [H.264 / 720p-LQ] [AD]
  • Yesterday / Yesterday (2019) BDRip [H.264 / 1080p-LQ] [AD]
  • Yesterday / Yesterday (2019) BDRip [H.264 / 1080p] [AVO] [hand made 16:9]
  • Yesterday / Yesterday (2019) BDRip [H.264 / 1080p] [AVO]
  • Yesterday / Yesterday (2019) BDRemux [H.264 / 1080p]
  • Yesterday / Yesterday (2019) BDRip [H.265] [10-bit]


    • Комментарии (0):

      Информация

      Информация

        Посетители, находящиеся в группе Гости, не могут оставлять комментарии в данной новости.

        ↓ Меню




        ↓ Опрос

        Вы добавили сайт в закладки?
        Да
        Нет


        Популярное