.
Авторизация | Регистрация

bitok.xyz

» » За бортом / Overboard (1987) BDRip [H.264 / 1080p] торрент скачать бесплатно


    За бортом / Overboard (1987) BDRip [H.264 / 1080p] торрент скачать бесплатно

    Дата: 26-10-2019, 05:00 | .torrent скачали: 0

    За бортом / Overboard (1987) BDRip [H.264 / 1080p]Производство: США/Hawn/Sylbert Movie Company, Metro-Goldwyn-Mayer (MGM), Star Partners Ltd.
    Жанр: мелодрама, комедия
    Режиссер: Гэрри Маршалл

    Актеры
    Голди Хоун, Курт Рассел, Эдвард Херрманн, Кэтрин Хелмонд, Майкл Дж. Хэгерти, Родди МакДауэлл, Джэред Раштон

    Описание

    Джоанна Стэйтон — молодая, красивая, но высокомерная и взбалмошная миллиардерша, владелица роскошной яхты. Когда судно останавливается для ремонта в небольшом городке, она нанимает плотника Дина Проффитта, чтобы тот произвёл некоторые переделки в её гардеробной. Однако вместо платы за работу Дин буквально вылетает за борт — ведь Джоанна всегда и всем недовольна. Выйдя ночью на палубу, Джоанна падает за борт, никто этого не замечает, и яхта уплывает. Позже её спасают, но она полностью теряет память. Дин осуществляет план мести: забирает Джоанну из больницы, переименовывает её в Энни и объявляет своей женой и матерью своих четверых непослушных сыновей.

    Возраст: 12+ (зрителям, достигшим 12 лет)
    Рейтинг MPAA: PG (рекомендуется присутствие родителей)
    Продолжительность: 01: 52: 10
    Качество видео: BDRip 1080p
    Перевод: Профессиональный (многоголосый, закадровый), Авторский (одноголосый)
    Субтитры: русские, английские
    Видео: AVC/H.264, 1920x1040, ~13, 8 Mbps
    Аудио 1: AC3, 2 ch, 192 Kbps - Русский многоголосый
    Аудио 2: AC3, 2 ch, 192 Kbps - Русский многоголосый, НТВ+
    Аудио 3: AC3, 2 ch, 224 Kbps - Русский многоголосый, ОРТ
    Аудио 4: DTS, 2 ch, 1509 Kbps - Русский авторский, Михалёв
    Аудио 5: AC3, 2 ch, 192 Kbps - Русский авторский, К9
    Аудио 6: DTS, 2 ch, 1509 Kbps - Английский
    Общее
    Уникальный идентификатор : 175593973883420356941811465209642730761 (0x841A2B530643FE9E892C8A368D6BC509)
    Полное имя : D: NNM-ClubOverboard.1987.1080p.BDRip.5xrus.eng.x264-CHD.mkv
    Формат : Matroska
    Версия формата : Version 2
    Размер файла : 13, 8 Гбайт
    Продолжительность : 1 ч. 52 м.
    Общий поток : 17, 6 Мбит/сек
    Дата кодирования : UTC 2011-02-02 09: 09: 04
    Программа кодирования : mkvmerge v3.4.0 (\'Rapunzel\') сборка от May 15 2010 09: 38: 20
    Библиотека кодирования : libebml v0.8.0 + libmatroska v0.9.0
    Видео
    Идентификатор : 1
    Формат : AVC
    Формат/Информация : Advanced Video Codec
    Профиль формата : High@L4.1
    Настройки формата : CABAC/4 Ref Frames
    Параметр CABAC формата : Да
    Параметр RefFrames формата : 4 кадра
    Идентификатор кодека : V_MPEG4/ISO/AVC
    Продолжительность : 1 ч. 52 м.
    Битрейт : 13, 8 Мбит/сек
    Ширина : 1920 пикселей
    Высота : 1040 пикселей
    Соотношение сторон : 1, 85: 1
    Режим частоты кадров : Постоянный
    Частота кадров : 23, 976 кадра/сек
    Цветовое пространство : YUV
    Субдискретизация насыщенности : 4: 2: 0
    Битовая глубина : 8 бит
    Тип развёртки : Прогрессивная
    Бит/(Пиксели*Кадры) : 0.288
    Размер потока : 10, 5 Гбайт (76%)
    Библиотека кодирования : x264 core 107 r1772 c9dad9e
    Настройки программы : cabac=1/ref=4/deblock=1: -3: -3/analyse=0x3: 0x113/me=umh/subme=9/psy=1/psy_rd=1.10: 0.15/mixed_ref=1/me_range=48/chroma_me=1/trellis=2/8x8dct=1/cqm=0/deadzone=21, 11/fast_pskip=0/chroma_qp_offset=-2/threads=12/sliced_threads=0/nr=0/decimate=1/interlaced=0/constrained_intra=0/bframes=6/b_pyramid=2/b_adapt=2/b_bias=0/direct=3/weightb=1/open_gop=0/weightp=2/keyint=250/keyint_min=23/scenecut=40/intra_refresh=0/rc_lookahead=60/rc=2pass/mbtree=1/bitrate=13804/ratetol=1.0/qcomp=0.70/qpmin=10/qpmax=51/qpstep=4/cplxblur=20.0/qblur=0.5/vbv_maxrate=45000/vbv_bufsize=40000/ip_ratio=1.40/aq=1: 0.90/nal_hrd=none
    Default : Да
    Forced : Нет
    Аудио #1
    Идентификатор : 2
    Формат : AC-3
    Формат/Информация : Audio Coding 3
    Коммерческое название : Dolby Digital
    Идентификатор кодека : A_AC3
    Продолжительность : 1 ч. 52 м.
    Вид битрейта : Постоянный
    Битрейт : 192 Кбит/сек
    Каналы : 2 канала
    ChannelLayout : L R
    Частота : 48, 0 КГц
    Частота кадров : 31, 250 кадров/сек (1536 SPF)
    Метод сжатия : С потерями
    Размер потока : 154 Мбайт (1%)
    Заголовок : MVO, 2.0
    Язык : Russian
    ServiceKind/String : Complete Main
    Default : Да
    Forced : Нет
    Аудио #2
    Идентификатор : 3
    Формат : AC-3
    Формат/Информация : Audio Coding 3
    Коммерческое название : Dolby Digital
    Идентификатор кодека : A_AC3
    Продолжительность : 1 ч. 52 м.
    Вид битрейта : Постоянный
    Битрейт : 192 Кбит/сек
    Каналы : 2 канала
    ChannelLayout : L R
    Частота : 48, 0 КГц
    Частота кадров : 31, 250 кадров/сек (1536 SPF)
    Метод сжатия : С потерями
    Размер потока : 154 Мбайт (1%)
    Заголовок : MVO, HTB 2.0
    Язык : Russian
    ServiceKind/String : Complete Main
    Default : Нет
    Forced : Нет
    Аудио #3
    Идентификатор : 4
    Формат : AC-3
    Формат/Информация : Audio Coding 3
    Коммерческое название : Dolby Digital
    Идентификатор кодека : A_AC3
    Продолжительность : 1 ч. 52 м.
    Вид битрейта : Постоянный
    Битрейт : 224 Кбит/сек
    Каналы : 2 канала
    ChannelLayout : L R
    Частота : 48, 0 КГц
    Частота кадров : 31, 250 кадров/сек (1536 SPF)
    Метод сжатия : С потерями
    Размер потока : 180 Мбайт (1%)
    Заголовок : MVO, OPT 2.0
    Язык : Russian
    ServiceKind/String : Complete Main
    Default : Нет
    Forced : Нет
    Аудио #4
    Идентификатор : 5
    Формат : DTS
    Формат/Информация : Digital Theater Systems
    Идентификатор кодека : A_DTS
    Продолжительность : 1 ч. 52 м.
    Вид битрейта : Постоянный
    Битрейт : 1509 Кбит/сек
    Каналы : 2 канала
    ChannelLayout : L R
    Частота : 48, 0 КГц
    Частота кадров : 93, 750 кадра/сек (512 SPF)
    Битовая глубина : 24 бит
    Метод сжатия : С потерями
    Размер потока : 1, 18 Гбайт (9%)
    Заголовок : Mihalev, DTS 1536kbps 2.0
    Язык : Russian
    Default : Нет
    Forced : Нет
    Аудио #5
    Идентификатор : 6
    Формат : AC-3
    Формат/Информация : Audio Coding 3
    Коммерческое название : Dolby Digital
    Идентификатор кодека : A_AC3
    Продолжительность : 1 ч. 52 м.
    Вид битрейта : Постоянный
    Битрейт : 192 Кбит/сек
    Каналы : 2 канала
    ChannelLayout : L R
    Частота : 48, 0 КГц
    Частота кадров : 31, 250 кадров/сек (1536 SPF)
    Метод сжатия : С потерями
    Размер потока : 154 Мбайт (1%)
    Заголовок : K9, 2.0
    Язык : Russian
    ServiceKind/String : Complete Main
    Default : Нет
    Forced : Нет
    Аудио #6
    Идентификатор : 7
    Формат : DTS
    Формат/Информация : Digital Theater Systems
    Идентификатор кодека : A_DTS
    Продолжительность : 1 ч. 52 м.
    Вид битрейта : Постоянный
    Битрейт : 1509 Кбит/сек
    Каналы : 2 канала
    ChannelLayout : L R
    Частота : 48, 0 КГц
    Частота кадров : 93, 750 кадра/сек (512 SPF)
    Битовая глубина : 24 бит
    Метод сжатия : С потерями
    Размер потока : 1, 18 Гбайт (9%)
    Язык : English
    Default : Нет
    Forced : Нет
    Текст #1
    Идентификатор : 8
    Формат : UTF-8
    Идентификатор кодека : S_TEXT/UTF8
    Идентификатор кодека/Информация : UTF-8 Plain Text
    Язык : Russian
    Default : Нет
    Forced : Нет
    Текст #2
    Идентификатор : 9
    Формат : UTF-8
    Идентификатор кодека : S_TEXT/UTF8
    Идентификатор кодека/Информация : UTF-8 Plain Text
    Язык : English
    Default : Нет
    Forced : Нет


    Онлайн видео За бортом



    За бортом/Overboard (1987) BDRip [H.264/1080p]
    Рейтинг →
     (голосов: 1, оценка 3/5, голосовать можно 1 раз )

    Другие торренты по теме:

  • За бортом / Overboard (1987) BDRip [H.264 / 1080p-LQ]
  • За бортом / Overboard (2018) WEB-DLRip [H.264 / 1080p-LQ] [Line, AD]
  • За бортом / Overboard (2018) WEB-DL [H.264 / 1080p-LQ]
  • За бортом / Overboard (2018) WEB-DLRip [H.264]
  • За бортом / Overboard (2018) BDRip [1080p] ATV
  • За бортом / Overboard (2018) HDRip
  • За бортом / Overboard (2018) BDRip [H.264 / 720p]
  • За бортом / Overboard (2018) BDRip [H.264 / 1080p]


    • Комментарии (0):

      Информация

      Информация

        Посетители, находящиеся в группе Гости, не могут оставлять комментарии в данной новости.

        ↓ Меню




        ↓ Опрос

        Вы добавили сайт в закладки?
        Да
        Нет


        Популярное