.
Авторизация | Регистрация

bitok.xyz

» » Рыцарь кубков / Knight of Cups (2015) BDRip [H.264 / 1080p] торрент скачать бесплатно


    Рыцарь кубков / Knight of Cups (2015) BDRip [H.264 / 1080p] торрент скачать бесплатно

    Дата: 26-10-2019, 05:00 | .torrent скачали: 0

    Рыцарь кубков / Knight of Cups (2015) BDRip [H.264 / 1080p]Производство: США, Dogwood Films, Waypoint Entertainment
    Жанр: Драма, мелодрама
    Режиссер: Терренс Малик

    Актеры
    Кристиан Бэйл, Кейт Бланшетт, Натали Портман, Брайан Деннехи, Антонио Бандерас, Фрида Пинто, Уэс Бентли, Изабель Лукас, Тереза Палмер, Имоджен Путс

    Описание

    Сценарист из Лос-Анджелеса пытается разобраться в странных событиях, происходящих в его жизни. Он успешен в своей карьере, но чувствует себя лишним в этой жизни. Из-за смерти брата у него возникают проблемы в отношениях с отцом, поэтому большую часть времени он проводит, кочуя из одной богемной вечеринки на другую, при этом каждый раз меняя женщин. Любовные романы отвлекают его от ежедневной боли, из-за утраты близкого человека. И каждая новая встреча, возникающая на его пути, приближает его к поиску своего места в мире.

    Возраст: 16+ (зрителям, достигшим 16 лет)
    Рейтинг MPAA: R (лицам до 17 лет обязательно присутствие взрослого)
    Релиз от: mike7025
    Продолжительность: 01: 58: 11
    Качество видео: BDRip
    Перевод: Многоголосый профессиональный, авторский
    Субтитры: Русские х2, английские, французские, немецкие
    Видео: AVC/H.264, 1920x814, ~15.2 Mbps
    Аудио 1: AC3, 2 ch, 256 Kbps - Русский (МVO, iTunes)
    Аудио 2: DTS-HD, 6 ch, 1509 Kbps - Русский (МVO, FocusStudio)
    Аудио 3: DTS-HD, 6 ch, 1509 Kbps - Русский (АVO, Д.Есарев)
    Аудио 4: DTS-HD, 6 ch, 1509 Kbps - Английский
    General
    Unique ID : 187852740114009385161226189229315589306 (0x8D531F29D556FF404CA30A0AE6E404BA)
    Complete name : G: Knight.of.Cups.2015.BDRip.1080p.mkv
    Format : Matroska
    Format version : Version 4/Version 2
    File size : 16.5 GiB
    Duration : 1 h 58 min
    Overall bit rate : 20.0 Mb/s
    Encoded date : UTC 2019-10-25 03: 29: 12
    Writing application : mkvmerge v20.0.0 (\'I Am The Sun\') 64-bit
    Writing library : libebml v1.3.5 + libmatroska v1.4.8
    Video
    ID : 1
    Format : AVC
    Format/Info : Advanced Video Codec
    Format profile : High@L4.1
    Format settings : CABAC/5 Ref Frames
    Format settings, CABAC : Yes
    Format settings, RefFrames : 5 frames
    Codec ID : V_MPEG4/ISO/AVC
    Duration : 1 h 58 min
    Bit rate : 15.2 Mb/s
    Width : 1 920 pixels
    Height : 814 pixels
    Display aspect ratio : 2.35: 1
    Frame rate mode : Constant
    Frame rate : 23.976 (24000/1001) FPS
    Color space : YUV
    Chroma subsampling : 4: 2: 0
    Bit depth : 8 bits
    Scan type : Progressive
    Bits/(Pixel*Frame) : 0.406
    Stream size : 12.6 GiB (76%)
    Writing library : x264 core 148 r2638kMod 7599210
    Encoding settings : cabac=1/ref=5/deblock=1: -3: -3/analyse=0x3: 0x133/me=umh/subme=9/psy=1/fade_compensate=0.00/psy_rd=1.00: 0.00/mixed_ref=1/me_range=32/chroma_me=1/trellis=2/8x8dct=1/cqm=0/deadzone=21, 11/fast_pskip=0/chroma_qp_offset=-2/threads=6/lookahead_threads=1/sliced_threads=0/nr=0/decimate=0/interlaced=0/bluray_compat=0/constrained_intra=0/fgo=0/bframes=8/b_pyramid=2/b_adapt=2/b_bias=0/direct=3/weightb=1/open_gop=0/weightp=2/keyint=250/keyint_min=23/scenecut=40/intra_refresh=0/rc=crf/mbtree=0/crf=18.0000/qcomp=0.60/qpmin=0/qpmax=69/qpstep=4/ip_ratio=1.30/pb_ratio=1.20/aq=3: 0.90
    Language : English
    Default : Yes
    Forced : No
    Audio #1
    ID : 2
    Format : AC-3
    Format/Info : Audio Coding 3
    Codec ID : A_AC3
    Duration : 1 h 58 min
    Bit rate mode : Constant
    Bit rate : 256 kb/s
    Channel(s) : 2 channels
    Channel positions : Front: L R
    Sampling rate : 48.0 kHz
    Frame rate : 31.250 FPS (1536 SPF)
    Bit depth : 16 bits
    Compression mode : Lossy
    Stream size : 216 MiB (1%)
    Title : MVO iTunes
    Language : Russian
    Service kind : Complete Main
    Default : Yes
    Forced : No
    Audio #2
    ID : 3
    Format : DTS
    Format/Info : Digital Theater Systems
    Codec ID : A_DTS
    Duration : 1 h 58 min
    Bit rate mode : Constant
    Bit rate : 1 509 kb/s
    Channel(s) : 6 channels
    Channel positions : Front: L C R, Side: L R, LFE
    Sampling rate : 48.0 kHz
    Frame rate : 93.750 FPS (512 SPF)
    Bit depth : 24 bits
    Compression mode : Lossy
    Stream size : 1.25 GiB (8%)
    Title : MVO FocusStudio
    Language : Russian
    Default : No
    Forced : No
    Audio #3
    ID : 4
    Format : DTS
    Format/Info : Digital Theater Systems
    Codec ID : A_DTS
    Duration : 1 h 58 min
    Bit rate mode : Constant
    Bit rate : 1 509 kb/s
    Channel(s) : 6 channels
    Channel positions : Front: L C R, Side: L R, LFE
    Sampling rate : 48.0 kHz
    Frame rate : 93.750 FPS (512 SPF)
    Bit depth : 16 bits
    Compression mode : Lossy
    Stream size : 1.25 GiB (8%)
    Title : AVO Esarev
    Language : Russian
    Default : No
    Forced : No
    Audio #4
    ID : 5
    Format : DTS
    Format/Info : Digital Theater Systems
    Codec ID : A_DTS
    Duration : 1 h 58 min
    Bit rate mode : Constant
    Bit rate : 1 509 kb/s
    Channel(s) : 6 channels
    Channel positions : Front: L C R, Side: L R, LFE
    Sampling rate : 48.0 kHz
    Frame rate : 93.750 FPS (512 SPF)
    Bit depth : 24 bits
    Compression mode : Lossy
    Stream size : 1.25 GiB (8%)
    Language : English
    Default : No
    Forced : No
    Text #1
    ID : 6
    Format : UTF-8
    Codec ID : S_TEXT/UTF8
    Codec ID/Info : UTF-8 Plain Text
    Duration : 1 h 51 min
    Bit rate : 46 b/s
    Count of elements : 665
    Stream size : 37.6 KiB (0%)
    Title : FocusStudio
    Language : Russian
    Default : No
    Forced : No
    Text #2
    ID : 7
    Format : UTF-8
    Codec ID : S_TEXT/UTF8
    Codec ID/Info : UTF-8 Plain Text
    Duration : 1 h 49 min
    Bit rate : 46 b/s
    Count of elements : 659
    Stream size : 37.5 KiB (0%)
    Language : Russian
    Default : No
    Forced : No
    Text #3
    ID : 8
    Format : UTF-8
    Codec ID : S_TEXT/UTF8
    Codec ID/Info : UTF-8 Plain Text
    Duration : 1 h 49 min
    Bit rate : 28 b/s
    Count of elements : 659
    Stream size : 22.8 KiB (0%)
    Language : English
    Default : No
    Forced : No
    Text #4
    ID : 9
    Format : UTF-8
    Codec ID : S_TEXT/UTF8
    Codec ID/Info : UTF-8 Plain Text
    Duration : 1 h 50 min
    Bit rate : 33 b/s
    Count of elements : 669
    Stream size : 27.3 KiB (0%)
    Language : French
    Default : No
    Forced : No
    Text #5
    ID : 10
    Format : UTF-8
    Codec ID : S_TEXT/UTF8
    Codec ID/Info : UTF-8 Plain Text
    Duration : 1 h 50 min
    Bit rate : 24 b/s
    Count of elements : 755
    Stream size : 19.7 KiB (0%)
    Language : German
    Default : No
    Forced : No
    Menu
    00: 00: 00.000 : en: Chapter 1
    00: 09: 33.406 : en: Chapter 2
    00: 21: 16.400 : en: Chapter 3
    00: 30: 05.678 : en: Chapter 4
    00: 39: 28.324 : en: Chapter 5
    00: 49: 00.145 : en: Chapter 6
    00: 59: 26.646 : en: Chapter 7
    01: 10: 42.613 : en: Chapter 8
    01: 21: 11.408 : en: Chapter 9
    01: 30: 31.592 : en: Chapter 10
    01: 40: 46.623 : en: Chapter 11
    01: 51: 10.413 : en: Chapter 12
    01: 58: 10.166 : en: Chapter 13

    Скриншоты для ознакомления




    Все одноименные релизы в Клубе
    Время раздачи: 24/7 (до появления первых 3-5 скачавших)

    Онлайн видео Рыцарь кубков



    Рыцарь кубков/Knight of Cups (2015) BDRip [H.264/1080p]
    Рейтинг →
     (голосов: 1, оценка 5/5, голосовать можно 1 раз )

    Другие торренты по теме:

  • Рыцарь кубков / Knight of Cups (2015) HDRip скачать через торрент бесплатно
  • Рыцарь кубков / Knight of Cups (2015) HDRip скачать через торрент бесплатно
  • Рыцарь кубков / Knight of Cups (2015) BDRemux [H.264 / 1080p] [EN / EN, Ge Sub] скачать через торрент бесплатно
  • Рыцарь кубков / Knight of Cups (2015) BDRip [H.264]
  • Рыцарь кубков / Knight of Cups (2015) BDRip [H.264 / 720p] [EN / EN Sub]
  • Рыцарь кубков / Knight of Cups (2015) BDRip [H.264 / 720p]
  • Рыцарь кубков / Knight of Cups (2015) BDRip
  • Рыцарь кубков / Knight of Cups (2015) Blu-ray [H.264 / 1080p] [Custom]


    • Комментарии (0):

      Информация

      Информация

        Посетители, находящиеся в группе Гости, не могут оставлять комментарии в данной новости.

        ↓ Меню




        ↓ Опрос

        Вы добавили сайт в закладки?
        Да
        Нет


        Популярное