.
Авторизация | Регистрация

bitok.xyz

» » Убийца: Дилогия / Sicario: 2 Movie Collection (2015 / 2018) UHD BDRip [H.265 / 2160p] [4K, HDR, 10-bit] торрент скачать бесплатно


    Убийца: Дилогия / Sicario: 2 Movie Collection (2015 / 2018) UHD BDRip [H.265 / 2160p] [4K, HDR, 10-bit] торрент скачать бесплатно

    Дата: 26-10-2019, 05:00 | .torrent скачали: 0

    Убийца: Дилогия / Sicario: 2 Movie Collection (2015 / 2018) UHD BDRip [H.265 / 2160p] [4K, HDR, 10-bit]Производство: США, Мексика/Black Label Media, Lionsgate, Thunder Road, Columbia Pictures Corporation
    Жанр: Боевик, Триллер, Драма, Криминал, Детектив
    Режиссер: Дени Вильнёв, Стефано Соллима

    Актеры
    Эмили Блант, Дэниэл Калуя, Бенисио Дель Торо, Изабела Монер, Джош Бролин, Джеффри Донован

    Описание

    Безлюдные пустоши, по которым проходит граница между Мексикой и США, — это территория без правил, поле битвы между мексиканскими наркокартелями и американскими спецслужбами, где исход войны с наркотрафиком не всегда складывается в пользу служителей закона.
    Возраст: 16+ (зрителям, достигшим 16 лет)
    Рейтинг MPAA: R (лицам до 17 лет обязательно присутствие взрослого)
    Продолжительность: 02: 01: 20 | 02: 02: 24
    Качество видео: UHD BDRip
    Перевод: Дублированный, Многоголосый закадровый, Одноголосый закадровый x6
    Субтитры: русские (форсированные, полные), английские (форсированные полные, для слабослышащих)
    Видео: HEVC/H.265, 3840x1600, ~9120 Kbps | 16, 6 Mbps
    Аудио 1: AC3, 6 ch, 640 Kbps (английский) - оба фильма
    Аудио 2: AC3, 6 ch, 384 Kbps (русский, дубляж - iTunes) - оба фильма
    Аудио 3: DTS, 6 ch, 1509 Kbps (русский, одноголосый - А. Матвеев, ненормативная лексика) || AC3, 2 ch, 192 Kbps (русский, многоголосый - HDRezka Studio)
    Аудио 4: DTS, 6 ch, 1509 Kbps (русский, одноголосый - Д. Есарев, ненормативная лексика) - оба фильма
    Аудио 5: AC3, 6 ch, 448 Kbps || DTS, 6 ch, 1509 Kbps (русский, одноголосый - Д. Есарев)
    Аудио 6: AC3, 6 ch, 448 Kbps || AC3, 6 ch, 384 Kbps (русский, одноголосый - Ю. Немахов, ненормативная лексика)
    Аудио 7: AC3, 6 ch, 448 Kbps (русский, одноголосый - А. Гаврилов) || AC3, 6 ch, 640 Kbps (русский, одноголосый - А. Важенин)
    Аудио 8: AC3, 6 ch, 448 Kbps (русский, одноголосый - Ю. Живов) - второй фильмПроизводство: США, Мексика/Black Label Media, Lionsgate, Thunder Road
    Жанр: Боевик, Триллер, Драма, Криминал, Детектив
    Режиссер: Дени Вильнёв
    Продюсер: Бэзил Иваник, Тэд Лакинбилл, Трент Лакинбилл

    Актеры
    Эмили Блант, Виктор Гарбер, Джон Бернтал, Дэниэл Калуя, Рауль Трухильо, Хулио Седильо, Хэнк Роджерсон

    Описание

    Во время операции ФБР с участием SWAT в городе Чандлер (Аризона) агент по розыску похищенных Кейт Мэйсер и её напарник Реджи встречают вооружённое сопротивление. В доме нет заложников, зато в стенах спрятано более 30 трупов. Когда полиция обыскивает гараж во дворе дома, раздаётся взрыв, погибают двое полицейских. Дом записан на влиятельного мексиканского предпринимателя Мануэля Диаса и Кейт хочет докопаться до него.

    Возраст: 16+ (зрителям, достигшим 16 лет)
    Рейтинг MPAA: R (лицам до 17 лет обязательно присутствие взрослого)
    Релиз от: IAMABLE
    Продолжительность: 02: 01: 20
    Качество видео: UHD BDRip
    Перевод: Дублированный, Одноголосый закадровый x6
    Субтитры: русские (форсированные, полные), английские (форсированные на испанскую речь (hardsub), полные, для слабослышащих)
    Видео: HEVC/H.265, 3840x1600, ~9120 Kbps
    Аудио 1: AC3, 6 ch, 640 Kbps (английский)
    Аудио 2: AC3, 6 ch, 384 Kbps (русский, дубляж - iTunes)
    Аудио 3: DTS, 6 ch, 1509 Kbps (русский, одноголосый - А. Матвеев, ненормативная лексика)
    Аудио 4: DTS, 6 ch, 1509 Kbps (русский, одноголосый - Д. Есарев, ненормативная лексика)
    Аудио 5: AC3, 6 ch, 448 Kbps (русский, одноголосый - Д. Есарев)
    Аудио 6: AC3, 6 ch, 448 Kbps (русский, одноголосый - Ю. Немахов, ненормативная лексика)
    Аудио 7: AC3, 6 ch, 448 Kbps (русский, одноголосый - А. Гаврилов)
    Аудио 8: AC3, 6 ch, 448 Kbps (русский, одноголосый - Ю. Живов)
    Общее
    Уникальный идентификатор : 183220132405481817349352047249353419556 (0x89D6E9F810CD491FF2CCE929E2D12B24)
    Полное имя : E: VideoУбийца (Sicario)2015 Убийца (Sicario).mkv
    Формат : Matroska
    Версия формата : Version 4/Version 2
    Размер файла : 12, 7 Гбайт
    Продолжительность : 2 ч. 1 м.
    Общий поток : 15, 0 Мбит/сек
    Название фильма : Убийца/Sicario
    Кодирование произвёл : IAMABLE
    Дата выпуска : 2015
    Дата кодирования : UTC 2019-10-23 05: 22: 25
    Программа кодирования : mkvmerge v34.0.0 (\'Sight and Seen\') 64-bit
    Библиотека кодирования : libebml v1.3.7 + libmatroska v1.5.0
    Обложка : Yes
    Attachments : cover.jpg/xlog.txt
    Released by : Buba5473 for NNM-Club
    Видео
    Идентификатор : 1
    Формат : HEVC
    Формат/Информация : High Efficiency Video Coding
    Профиль формата : Main10@L5.1@High
    Идентификатор кодека : V_MPEGH/ISO/HEVC
    Продолжительность : 2 ч. 1 м.
    Битрейт : 9120 Кбит/сек
    Ширина : 3840 пикселей
    Высота : 1600 пикселей
    Соотношение сторон : 2, 40: 1
    Режим частоты кадров : Постоянный
    Частота кадров : 23, 976 (24000/1001) кадра/сек
    Цветовое пространство : YUV
    Субдискретизация насыщенности : 4: 2: 0 (Type 2)
    Битовая глубина : 10 бит
    Бит/(Пиксели*Кадры) : 0.062
    Размер потока : 7, 73 Гбайт (61%)
    Заголовок : Sicario.2015.2160p.UHD.BluRay.X265-IAMABLE
    Библиотека кодирования : x265 2.6+4-f7498acb3874: WindowsGCC 7.2.064 bit 10bit
    Настройки программы : cpuid=1173503/frame-threads=5/numa-pools=16, 16/wpp/no-pmode/no-pme/no-psnr/no-ssim/log-level=2/input-csp=1/input-res=3840x1600/interlace=0/total-frames=174551/level-idc=51/high-tier=1/uhd-bd=0/ref=4/no-allow-non-conformance/repeat-t_heads/annexb/aud/hrd/info/hash=0/no-temporal-layers/no-open-gop/min-keyint=24/keyint=240/bframes=4/b-adapt=2/b-pyramid/bframe-bias=0/rc-lookahead=25/lookahead-slices=4/scenecut=40/no-intra-refresh/ctu=64/min-cu-size=8/rect/no-amp/max-tu-size=32/tu-inter-depth=1/tu-intra-depth=1/limit-tu=0/rdoq-level=2/dynamic-rd=0.00/no-ssim-rd/signhide/no-tskip/nr-intra=0/nr-inter=0/no-constrained-intra/no-strong-intra-smoothing/max-merge=3/limit-refs=3/limit-modes/me=3/subme=3/merange=57/temporal-mvp/weightp/no-weightb/no-analyze-src-pics/deblock=-3: -3/no-sao/no-sao-non-deblock/rd=4/no-early-skip/rskip/no-fast-intra/no-tskip-fast/no-cu-lossless/no-b-intra/no-splitrd-skip/rdpenalty=0/psy-rd=2.00/psy-rdoq=1.00/no-rd-refine/analysis-reuse-mode=0/no-lossless/cbqpoffs=0/crqpoffs=0/rc=crf/crf=17.0/qcomp=0.60/qpstep=4/stats-write=0/stats-read=0/vbv-maxrate=160000/vbv-bufsize=160000/vbv-init=0.9/crf-max=0.0/crf-min=0.0/ipratio=1.40/pbratio=1.30/aq-mode=1/aq-strength=1.00/cutree/zone-count=0/no-strict-cbr/qg-size=32/no-rc-grain/qpmax=69/qpmin=0/no-const-vbv/sar=1/overscan=0/videoformat=5/range=0/colorprim=9/transfer=16/colormatrix=9/chromaloc=1/chromaloc-top=2/chromaloc-bottom=2/display-window=0/master-display=G(13250, 34500)B(7500, 3000)R(34000, 16000)WP(15635, 16450)L(40000000, 50)/max-cll=0, 0/min-luma=0/max-luma=1023/log2-max-poc-lsb=8/vui-timing-info/vui-hrd-info/slices=1/opt-qp-pps/opt-ref-list-length-pps/no-multi-pass-opt-rps/scenecut-bias=0.05/no-opt-cu-delta-qp/no-aq-motion/hdr/hdr-opt/no-dhdr10-opt/analysis-reuse-level=5/scale-factor=0/refine-intra=0/refine-inter=0/refine-mv=0/no-limit-sao/ctu-info=0/no-lowpass-dct/refine-mv-type=0/copy-pic=1
    Default : Да
    Forced : Нет
    Color range : Limited
    Основные цвета : BT.2020
    Характеристики трансфера : SMPTE ST 2084
    Коэффициенты матрицы : BT.2020 non-constant
    Mastering display color primaries : R: x=0.680000 y=0.320000, G: x=0.265000 y=0.690000, B: x=0.150000 y=0.060000, White point: x=0.312700 y=0.329000
    Mastering display luminance : min: 0.0050 cd/m2, max: 4000.0000 cd/m2
    Аудио #1
    Идентификатор : 2
    Формат : AC-3
    Формат/Информация : Audio Coding 3
    Параметр Endianness формата : Big
    Идентификатор кодека : A_AC3
    Продолжительность : 2 ч. 1 м.
    Вид битрейта : Постоянный
    Битрейт : 640 Кбит/сек
    Каналы : 6 каналов
    Расположение каналов : Front: L C R, Side: L R, LFE
    Частота : 48, 0 КГц
    Частота кадров : 31, 250 кадров/сек (1536 SPF)
    Битовая глубина : 16 бит
    Метод сжатия : С потерями
    Размер потока : 555 Мбайт (4%)
    Заголовок : AC3 5.1
    Язык : English
    Service kind : Complete Main
    Default : Нет
    Forced : Нет
    Аудио #2
    Идентификатор : 10
    Формат : AC-3
    Формат/Информация : Audio Coding 3
    Параметр Endianness формата : Big
    Идентификатор кодека : A_AC3
    Продолжительность : 2 ч. 1 м.
    Вид битрейта : Постоянный
    Битрейт : 384 Кбит/сек
    Каналы : 6 каналов
    Расположение каналов : Front: L C R, Side: L R, LFE
    Частота : 48, 0 КГц
    Частота кадров : 31, 250 кадров/сек (1536 SPF)
    Битовая глубина : 16 бит
    Метод сжатия : С потерями
    Задержка видео : 6 мс.
    Размер потока : 333 Мбайт (3%)
    Заголовок : Перевод: Профессиональный (дублированный) | iTunes
    Язык : Russian
    Service kind : Complete Main
    Default : Да
    Forced : Нет
    Аудио #3
    Идентификатор : 11
    Формат : DTS
    Формат/Информация : Digital Theater Systems
    Режим : 16
    Параметр Endianness формата : Big
    Идентификатор кодека : A_DTS
    Продолжительность : 2 ч. 1 м.
    Вид битрейта : Постоянный
    Битрейт : 1509 Кбит/сек
    Каналы : 6 каналов
    Расположение каналов : Front: L C R, Side: L R, LFE
    Частота : 48, 0 КГц
    Частота кадров : 93, 750 кадра/сек (512 SPF)
    Битовая глубина : 24 бит
    Метод сжатия : С потерями
    Задержка видео : 6 мс.
    Размер потока : 1, 28 Гбайт (10%)
    Заголовок : Перевод: Одноголосый закадровый | А. Матвеев Doctor_Joker, ненормативная лексика
    Язык : Russian
    Default : Нет
    Forced : Нет
    Аудио #4
    Идентификатор : 12
    Формат : DTS
    Формат/Информация : Digital Theater Systems
    Режим : 16
    Параметр Endianness формата : Big
    Идентификатор кодека : A_DTS
    Продолжительность : 2 ч. 1 м.
    Вид битрейта : Постоянный
    Битрейт : 1509 Кбит/сек
    Каналы : 6 каналов
    Расположение каналов : Front: L C R, Side: L R, LFE
    Частота : 48, 0 КГц
    Частота кадров : 93, 750 кадра/сек (512 SPF)
    Битовая глубина : 24 бит
    Метод сжатия : С потерями
    Задержка видео : 6 мс.
    Размер потока : 1, 28 Гбайт (10%)
    Заголовок : Перевод: Одноголосый закадровый | Д. Есарев, ненормативная лексика
    Язык : Russian
    Default : Нет
    Forced : Нет
    Аудио #5
    Идентификатор : 13
    Формат : AC-3
    Формат/Информация : Audio Coding 3
    Параметр Endianness формата : Big
    Идентификатор кодека : A_AC3
    Продолжительность : 2 ч. 1 м.
    Вид битрейта : Постоянный
    Битрейт : 448 Кбит/сек
    Каналы : 6 каналов
    Расположение каналов : Front: L C R, Side: L R, LFE
    Частота : 48, 0 КГц
    Частота кадров : 31, 250 кадров/сек (1536 SPF)
    Битовая глубина : 16 бит
    Метод сжатия : С потерями
    Задержка видео : 6 мс.
    Размер потока : 389 Мбайт (3%)
    Заголовок : Перевод: Одноголосый закадровый | Д. Есарев
    Язык : Russian
    Service kind : Complete Main
    Default : Нет
    Forced : Нет
    Аудио #6
    Идентификатор : 14
    Формат : AC-3
    Формат/Информация : Audio Coding 3
    Параметр Endianness формата : Big
    Идентификатор кодека : A_AC3
    Продолжительность : 2 ч. 1 м.
    Вид битрейта : Постоянный
    Битрейт : 448 Кбит/сек
    Каналы : 6 каналов
    Расположение каналов : Front: L C R, Side: L R, LFE
    Частота : 48, 0 КГц
    Частота кадров : 31, 250 кадров/сек (1536 SPF)
    Битовая глубина : 16 бит
    Метод сжатия : С потерями
    Задержка видео : 6 мс.
    Размер потока : 389 Мбайт (3%)
    Заголовок : Перевод: Одноголосый закадровый | Ю. Немахов, ненормативная лексика
    Язык : Russian
    Service kind : Complete Main
    Default : Нет
    Forced : Нет
    Аудио #7
    Идентификатор : 19
    Формат : AC-3
    Формат/Информация : Audio Coding 3
    Параметр Endianness формата : Big
    Идентификатор кодека : A_AC3
    Продолжительность : 2 ч. 1 м.
    Вид битрейта : Постоянный
    Битрейт : 448 Кбит/сек
    Каналы : 6 каналов
    Расположение каналов : Front: L C R, Side: L R, LFE
    Частота : 48, 0 КГц
    Частота кадров : 31, 250 кадров/сек (1536 SPF)
    Битовая глубина : 16 бит
    Метод сжатия : С потерями
    Задержка видео : 6 мс.
    Размер потока : 389 Мбайт (3%)
    Заголовок : Перевод: Авторский (одноголосый закадровый) Андрей Гаврилов
    Язык : Russian
    Service kind : Complete Main
    Default : Нет
    Forced : Нет
    Аудио #8
    Идентификатор : 20
    Формат : AC-3
    Формат/Информация : Audio Coding 3
    Параметр Endianness формата : Big
    Идентификатор кодека : A_AC3
    Продолжительность : 2 ч. 1 м.
    Вид битрейта : Постоянный
    Битрейт : 448 Кбит/сек
    Каналы : 6 каналов
    Расположение каналов : Front: L C R, Side: L R, LFE
    Частота : 48, 0 КГц
    Частота кадров : 31, 250 кадров/сек (1536 SPF)
    Битовая глубина : 16 бит
    Метод сжатия : С потерями
    Задержка видео : 6 мс.
    Размер потока : 389 Мбайт (3%)
    Заголовок : Перевод: Авторский (одноголосый закадровый) Юрий Живов
    Язык : Russian
    Service kind : Complete Main
    Default : Нет
    Forced : Нет
    Текст #1
    Идентификатор : 3
    Формат : UTF-8
    Идентификатор кодека : S_TEXT/UTF8
    Идентификатор кодека/Информация : UTF-8 Plain Text
    Продолжительность : 1 ч. 50 м.
    Битрейт : 38 бит/сек
    Count of elements : 989
    Размер потока : 31, 0 Кбайт (0%)
    Заголовок : Stripped SRT
    Язык : English
    Default : Нет
    Forced : Нет
    Текст #2
    Идентификатор : 4
    Формат : UTF-8
    Идентификатор кодека : S_TEXT/UTF8
    Идентификатор кодека/Информация : UTF-8 Plain Text
    Продолжительность : 1 ч. 50 м.
    Битрейт : 37 бит/сек
    Count of elements : 939
    Размер потока : 30, 6 Кбайт (0%)
    Заголовок : Full SRT
    Язык : English
    Default : Нет
    Forced : Нет
    Текст #3
    Идентификатор : 5
    Формат : PGS
    Режим смешивания : zlib
    Идентификатор кодека : S_HDMV/PGS
    Идентификатор кодека/Информация : Picture based subtitle format used on BDs/HD-DVDs
    Продолжительность : 1 ч. 50 м.
    Битрейт : 23, 6 Кбит/сек
    Count of elements : 1878
    Размер потока : 18, 7 Мбайт (0%)
    Заголовок : Full (White)
    Язык : English
    Default : Нет
    Forced : Нет
    Текст #4
    Идентификатор : 6
    Формат : PGS
    Режим смешивания : zlib
    Идентификатор кодека : S_HDMV/PGS
    Идентификатор кодека/Информация : Picture based subtitle format used on BDs/HD-DVDs
    Продолжительность : 1 ч. 50 м.
    Битрейт : 23, 6 Кбит/сек
    Count of elements : 1878
    Размер потока : 18, 7 Мбайт (0%)
    Заголовок : Full (Grey)
    Язык : English
    Default : Нет
    Forced : Нет
    Текст #5
    Идентификатор : 7
    Формат : UTF-8
    Идентификатор кодека : S_TEXT/UTF8
    Идентификатор кодека/Информация : UTF-8 Plain Text
    Продолжительность : 1 ч. 53 м.
    Битрейт : 44 бит/сек
    Count of elements : 1245
    Размер потока : 37, 3 Кбайт (0%)
    Заголовок : SDH SRT
    Язык : English
    Default : Нет
    Forced : Нет
    Текст #6
    Идентификатор : 8
    Формат : PGS
    Режим смешивания : zlib
    Идентификатор кодека : S_HDMV/PGS
    Идентификатор кодека/Информация : Picture based subtitle format used on BDs/HD-DVDs
    Продолжительность : 1 ч. 53 м.
    Битрейт : 29, 4 Кбит/сек
    Count of elements : 2490
    Размер потока : 23, 9 Мбайт (0%)
    Заголовок : SDH (White)
    Язык : English
    Default : Нет
    Forced : Нет
    Текст #7
    Идентификатор : 9
    Формат : PGS
    Режим смешивания : zlib
    Идентификатор кодека : S_HDMV/PGS
    Идентификатор кодека/Информация : Picture based subtitle format used on BDs/HD-DVDs
    Продолжительность : 1 ч. 53 м.
    Битрейт : 29, 4 Кбит/сек
    Count of elements : 2490
    Размер потока : 23, 9 Мбайт (0%)
    Заголовок : SDH (Grey)
    Язык : English
    Default : Нет
    Forced : Нет
    Текст #8
    Идентификатор : 15
    Формат : UTF-8
    Идентификатор кодека : S_TEXT/UTF8
    Идентификатор кодека/Информация : UTF-8 Plain Text
    Продолжительность : 1 ч. 42 м.
    Битрейт : 7 бит/сек
    Count of elements : 155
    Размер потока : 5, 34 Кбайт (0%)
    Заголовок : Форсированные
    Язык : Russian
    Default : Да
    Forced : Нет
    Текст #9
    Идентификатор : 16
    Формат : UTF-8
    Идентификатор кодека : S_TEXT/UTF8
    Идентификатор кодека/Информация : UTF-8 Plain Text
    Продолжительность : 1 ч. 54 м.
    Битрейт : 61 бит/сек
    Count of elements : 1037
    Размер потока : 52, 1 Кбайт (0%)
    Заголовок : Матвеев (без цензуры)
    Язык : Russian
    Default : Нет
    Forced : Нет
    Текст #10
    Идентификатор : 17
    Формат : UTF-8
    Идентификатор кодека : S_TEXT/UTF8
    Идентификатор кодека/Информация : UTF-8 Plain Text
    Продолжительность : 1 ч. 55 м.
    Битрейт : 69 бит/сек
    Count of elements : 1079
    Размер потока : 58, 2 Кбайт (0%)
    Заголовок : Voronine
    Язык : Russian
    Default : Нет
    Forced : Нет
    Текст #11
    Идентификатор : 18
    Формат : UTF-8
    Идентификатор кодека : S_TEXT/UTF8
    Идентификатор кодека/Информация : UTF-8 Plain Text
    Продолжительность : 1 ч. 55 м.
    Битрейт : 79 бит/сек
    Count of elements : 1278
    Размер потока : 67, 3 Кбайт (0%)
    Заголовок : Voronine, SDH
    Язык : Russian
    Default : Нет
    Forced : Нет
    Меню
    00: 00: 00.000 : en: 00: 00: 00.000
    00: 07: 13.350 : en: 00: 07: 13.350
    00: 12: 54.107 : en: 00: 12: 54.107
    00: 20: 03.369 : en: 00: 20: 03.369
    00: 25: 23.814 : en: 00: 25: 23.814
    00: 32: 10.595 : en: 00: 32: 10.595
    00: 39: 23.820 : en: 00: 39: 23.820
    00: 46: 14.313 : en: 00: 46: 14.313
    00: 53: 23.575 : en: 00: 53: 23.575
    01: 01: 39.321 : en: 01: 01: 39.321
    01: 10: 48.119 : en: 01: 10: 48.119
    01: 18: 01.886 : en: 01: 18: 01.886
    01: 30: 58.370 : en: 01: 30: 58.370
    01: 36: 56.769 : en: 01: 36: 56.769
    01: 47: 41.038 : en: 01: 47: 41.038
    01: 54: 11.803 : en: 01: 54: 11.803
    XMP
    Xmp.video.FileName : E: VideoУбийца (Sicario)2015 Убийца (Sicario).mkv
    Xmp.video.FileSize : -9.53674e-007
    Xmp.video.MimeType : video/matroska
    Xmp.video.EBMLVersion : 1
    Xmp.video.EBMLReadVersion : 1
    Xmp.video.DocType : matroska
    Xmp.video.DocTypeVersion : 4
    Xmp.video.DocTypeReadVersion : 2
    Xmp.video.TimecodeScale : 0.001
    Xmp.video.MuxingApp : libebml v1.3.7 + libmatroska v1.5.0
    Xmp.video.WritingApp : mkvmerge v34.0.0 (\'Sight and Seen\') 64-bit
    Xmp.video.Duration : 7280256
    Xmp.video.DateUTC : 593500945
    Xmp.video.Title : Убийца/Sicario
    Xmp.video.TotalStream : 352
    Xmp.video.TrackLacing : No
    Xmp.video.Codec : V_MPEGH/ISO/HEVC
    Xmp.video.FrameRate : 23.976
    Xmp.video.TrackLang : und
    Xmp.video.TrackName : Перевод: Авторский (РѕРґРЅРѕРіРѕРосый закадровый) Юрий Р–РёРІРѕРІ
    Xmp.video.Width : 3840
    Xmp.video.Height : 1600
    Xmp.audio.DefaultOn : No
    Xmp.audio.Compressor : A_AC3
    Xmp.audio.DefaultDuration : 32000
    Xmp.audio.SampleRate : 48000
    Xmp.video.SubTDefaultOn : No
    Xmp.video.SubTTrackLacing : No
    Xmp.video.SubTCodec : S_TEXT/UTF8
    Xmp.audio.TrackLang : rus
    Xmp.audio.BitsPerSample : 24
    Xmp.video.SubTLang : rus
    Xmp.video.AttachFileName : xlog.txt
    Xmp.video.AttachFileMIME : text/plain
    Xmp.video.AttachFileUID : 1531080525816738219
    Xmp.video.AspectRatio : 2.4
    H.265/HEVC (High Efficiency Video Coding) - это новый стандарт кодирования видео.
    *Рипы в фомате HEVC, в настоящее время поддерживается не всеми аппаратными проигрывателями.
    *Для корректного воспроизведения может потребоваться обновление ПО.
    *Стандарт H.265/HEVC является логическим продолжением стандарта H.264/AVC (Advanced Video Coding), и характеризуется более эффективными алгоритмами сжатия, а также поддержкой высокого разрешения вплоть до 8K UHD (8192x4320). Первая версия стандарта H.265 была опубликована в начале 2013 года.
    Любителям решения из коробки - установить последнюю версию на выбор:
    Media Player Classic - Black Edition (MPC-BE)
    VLC media player
    Daum Pot Player
    GOM Media Player
    Любителям WMP и других плееров, использующих по умолчанию для воспроизведения системные кодеки+сплитеры - установить K-Lite Codec Pack версии 10.1.0 и выше.
    Любимые плееры, не использующии по умолчанию для воспроизведения системные кодеки+сплитеры, нужно перенастроить на использование оных.Просмотр 4K HDR-контента на ПК

    Скриншоты для ознакомления



    Все релизы фильма Убийца в Клубе Производство: США/Black Label Media, Columbia Pictures Corporation, Thunder Road
    Жанр: Боевик, Триллер, Драма, Криминал
    Режиссер: Стефано Соллима

    Актеры
    Изабела Монер, Кэтрин Кинер, Мануэль Рульфо, Мэттью Модайн, Шей Уигэм, Элиас Гарза, Ховард Фергюсон мл.

    Описание

    Обстановка на американо-мексиканской границе накаляется, когда наркокартели начинают переправлять в США террористов. Чтобы дать им отпор федеральный агент Мэтт Грейвер вынужден вновь объединиться с не самым надежным напарником - Алехандро.

    Возраст: 18+ (зрителям, достигшим 18 лет. запрещено для детей)
    Рейтинг MPAA: R (лицам до 17 лет обязательно присутствие взрослого)
    Релиз от: TERMiNAL
    Продолжительность: 02: 02: 24
    Качество видео: UHD BDRip
    Перевод: Дублированный, Многоголосый закадровый, Одноголосый закадровый x4
    Субтитры: русские (форсированные, полные), английские (форсированные, полные, для слабослышащих)
    Видео: HEVC/H.265, 3840x1600, ~16, 6 Mbps
    Аудио 1: AC3, 6 ch, 640 Kbps (английский)
    Аудио 2: AC3, 6 ch, 384 Kbps (русский, дубляж - iTunes)
    Аудио 3: AC3, 2 ch, 192 Kbps (русский, многоголосый - HDRezka Studio)
    Аудио 4: DTS, 6 ch, 1509 Kbps (русский, одноголосый - Д. Есарев, ненормативная лексика)
    Аудио 5: DTS, 6 ch, 1509 Kbps (русский, одноголосый - Д. Есарев)
    Аудио 6: AC3, 6 ch, 384 Kbps (русский, одноголосый - Ю. Немахов)
    Аудио 7: AC3, 6 ch, 640 Kbps (русский, одноголосый - А. Важенин)
    Общее
    Уникальный идентификатор : 73387065707208267804104942873188551715 (0x3735D5B15D65D37A75F0EC05650CCC23)
    Полное имя : E: VideoУбийца (Sicario)2018 Против всех (Sicario 2. Soldado).mkv
    Формат : Matroska
    Версия формата : Version 4/Version 2
    Размер файла : 19, 1 Гбайт
    Продолжительность : 2 ч. 2 м.
    Общий поток : 22, 3 Мбит/сек
    Название фильма : Убийца 2. Против всех/Sicario 2: Soldado/Sicario: Day of the Soldado
    Кодирование произвёл : TERMiNAL
    Дата выпуска : 2018
    Дата кодирования : UTC 2019-10-23 07: 56: 17
    Программа кодирования : mkvmerge v34.0.0 (\'Sight and Seen\') 64-bit
    Библиотека кодирования : libebml v1.3.7 + libmatroska v1.5.0
    Обложка : Yes
    Attachments : cover.png
    Released by : Buba5473 for NNM-Club
    Видео
    Идентификатор : 1
    Формат : HEVC
    Формат/Информация : High Efficiency Video Coding
    Профиль формата : Main10@L5.1@High
    Идентификатор кодека : V_MPEGH/ISO/HEVC
    Продолжительность : 2 ч. 2 м.
    Битрейт : 17, 0 Мбит/сек
    Ширина : 3840 пикселей
    Высота : 1600 пикселей
    Соотношение сторон : 2, 40: 1
    Режим частоты кадров : Постоянный
    Частота кадров : 23, 976 (24000/1001) кадра/сек
    Цветовое пространство : YUV
    Субдискретизация насыщенности : 4: 2: 0 (Type 2)
    Битовая глубина : 10 бит
    Бит/(Пиксели*Кадры) : 0.115
    Размер потока : 14, 5 Гбайт (76%)
    Заголовок : Sicario.Day.of.the.Soldado.2018.2160p.UHD.BluRay.x265-TERMiNAL
    Библиотека кодирования : x265 2.8+66-88ee12651e30: WindowsGCC 6.3.064 bit 10bit
    Настройки программы : cpuid=1111039/frame-threads=4/numa-pools=20/wpp/no-pmode/no-pme/no-psnr/no-ssim/log-level=2/input-csp=1/input-res=3840x1600/interlace=0/total-frames=176088/level-idc=51/high-tier=1/uhd-bd=0/ref=4/no-allow-non-conformance/repeat-t_heads/annexb/aud/hrd/info/hash=0/no-temporal-layers/no-open-gop/min-keyint=1/keyint=24/gop-lookahead=0/bframes=4/b-adapt=2/b-pyramid/bframe-bias=0/rc-lookahead=25/lookahead-slices=4/scenecut=40/radl=0/no-intra-refresh/ctu=64/min-cu-size=8/rect/no-amp/max-tu-size=32/tu-inter-depth=1/tu-intra-depth=1/limit-tu=0/rdoq-level=2/dynamic-rd=0.00/no-ssim-rd/signhide/no-tskip/nr-intra=0/nr-inter=0/no-constrained-intra/no-strong-intra-smoothing/max-merge=3/limit-refs=3/limit-modes/me=3/subme=3/merange=57/temporal-mvp/weightp/no-weightb/no-analyze-src-pics/deblock=-3: -3/no-sao/no-sao-non-deblock/rd=4/no-early-skip/rskip/no-fast-intra/no-tskip-fast/no-cu-lossless/no-b-intra/no-splitrd-skip/rdpenalty=0/psy-rd=2.00/psy-rdoq=1.00/no-rd-refine/no-lossless/cbqpoffs=0/crqpoffs=0/rc=crf/crf=17.0/qcomp=0.60/qpstep=4/stats-write=0/stats-read=0/vbv-maxrate=160000/vbv-bufsize=160000/vbv-init=0.9/crf-max=0.0/crf-min=0.0/ipratio=1.40/pbratio=1.30/aq-mode=1/aq-strength=1.00/cutree/zone-count=0/no-strict-cbr/qg-size=32/no-rc-grain/qpmax=69/qpmin=0/no-const-vbv/sar=1/overscan=0/videoformat=5/range=0/colorprim=9/transfer=16/colormatrix=9/chromaloc=1/chromaloc-top=2/chromaloc-bottom=2/display-window=0/master-display=G(13250, 34500)B(7500, 3000)R(34000, 16000)WP(15635, 16450)L(10000000, 1)/max-cll=8325, 775/min-luma=0/max-luma=1023/log2-max-poc-lsb=8/vui-timing-info/vui-hrd-info/slices=1/no-opt-qp-pps/no-opt-ref-list-length-pps/no-multi-pass-opt-rps/scenecut-bias=0.05/no-opt-cu-delta-qp/no-aq-motion/hdr/hdr-opt/no-dhdr10-opt/no-idr-recovery-sei/analysis-reuse-level=5/scale-factor=0/refine-intra=0/refine-inter=0/refine-mv=0/no-limit-sao/ctu-info=0/no-lowpass-dct/refine-mv-type=0/copy-pic=1/max-ausize-factor=1.0/no-dynamic-refine/no-single-sei
    Default : Да
    Forced : Нет
    Color range : Limited
    Основные цвета : BT.2020
    Характеристики трансфера : SMPTE ST 2084
    Коэффициенты матрицы : BT.2020 non-constant
    Mastering display color primaries : R: x=0.680000 y=0.320000, G: x=0.265000 y=0.690000, B: x=0.150000 y=0.060000, White point: x=0.312700 y=0.329000
    Mastering display luminance : min: 0.0001 cd/m2, max: 1000.0000 cd/m2
    Maximum Content Light Level : 8325 cd/m2
    Maximum Frame-Average Light Level : 775 cd/m2
    Аудио #1
    Идентификатор : 2
    Формат : AC-3
    Формат/Информация : Audio Coding 3
    Параметр Endianness формата : Big
    Идентификатор кодека : A_AC3
    Продолжительность : 2 ч. 2 м.
    Вид битрейта : Постоянный
    Битрейт : 640 Кбит/сек
    Каналы : 6 каналов
    Расположение каналов : Front: L C R, Side: L R, LFE
    Частота : 48, 0 КГц
    Частота кадров : 31, 250 кадров/сек (1536 SPF)
    Битовая глубина : 16 бит
    Метод сжатия : С потерями
    Размер потока : 560 Мбайт (3%)
    Язык : English
    Service kind : Complete Main
    Default : Нет
    Forced : Нет
    Аудио #2
    Идентификатор : 6
    Формат : AC-3
    Формат/Информация : Audio Coding 3
    Параметр Endianness формата : Big
    Идентификатор кодека : A_AC3
    Продолжительность : 2 ч. 2 м.
    Вид битрейта : Постоянный
    Битрейт : 384 Кбит/сек
    Каналы : 6 каналов
    Расположение каналов : Front: L C R, Side: L R, LFE
    Частота : 48, 0 КГц
    Частота кадров : 31, 250 кадров/сек (1536 SPF)
    Битовая глубина : 16 бит
    Метод сжатия : С потерями
    Размер потока : 336 Мбайт (2%)
    Заголовок : Перевод: Профессиональный (полное дублирование) iTunes Russia
    Язык : Russian
    Service kind : Complete Main
    Default : Да
    Forced : Нет
    Аудио #3
    Идентификатор : 7
    Формат : AC-3
    Формат/Информация : Audio Coding 3
    Параметр Endianness формата : Big
    Идентификатор кодека : A_AC3
    Продолжительность : 2 ч. 2 м.
    Вид битрейта : Постоянный
    Битрейт : 192 Кбит/сек
    Каналы : 2 канала
    Расположение каналов : Front: L R
    Частота : 48, 0 КГц
    Частота кадров : 31, 250 кадров/сек (1536 SPF)
    Битовая глубина : 16 бит
    Метод сжатия : С потерями
    Размер потока : 168 Мбайт (1%)
    Заголовок : Перевод: Любительский (многоголосый закадровый) HDRezka Studio
    Язык : Russian
    Service kind : Complete Main
    Default : Нет
    Forced : Нет
    Аудио #4
    Идентификатор : 8
    Формат : DTS
    Формат/Информация : Digital Theater Systems
    Режим : 16
    Параметр Endianness формата : Big
    Идентификатор кодека : A_DTS
    Продолжительность : 2 ч. 2 м.
    Вид битрейта : Постоянный
    Битрейт : 1509 Кбит/сек
    Каналы : 6 каналов
    Расположение каналов : Front: L C R, Side: L R, LFE
    Частота : 48, 0 КГц
    Частота кадров : 93, 750 кадра/сек (512 SPF)
    Битовая глубина : 16 бит
    Метод сжатия : С потерями
    Размер потока : 1, 29 Гбайт (7%)
    Заголовок : Перевод: Одноголосый закадровый | Д. Есарев, ненормативная лексика
    Язык : Russian
    Default : Нет
    Forced : Нет
    Аудио #5
    Идентификатор : 9
    Формат : DTS
    Формат/Информация : Digital Theater Systems
    Режим : 16
    Параметр Endianness формата : Big
    Идентификатор кодека : A_DTS
    Продолжительность : 2 ч. 2 м.
    Вид битрейта : Постоянный
    Битрейт : 1509 Кбит/сек
    Каналы : 6 каналов
    Расположение каналов : Front: L C R, Side: L R, LFE
    Частота : 48, 0 КГц
    Частота кадров : 93, 750 кадра/сек (512 SPF)
    Битовая глубина : 16 бит
    Метод сжатия : С потерями
    Размер потока : 1, 29 Гбайт (7%)
    Заголовок : Перевод: Одноголосый закадровый | Д. Есарев
    Язык : Russian
    Default : Нет
    Forced : Нет
    Аудио #6
    Идентификатор : 10
    Формат : AC-3
    Формат/Информация : Audio Coding 3
    Параметр Endianness формата : Big
    Идентификатор кодека : A_AC3
    Продолжительность : 2 ч. 2 м.
    Вид битрейта : Постоянный
    Битрейт : 384 Кбит/сек
    Каналы : 6 каналов
    Расположение каналов : Front: L C R, Side: L R, LFE
    Частота : 48, 0 КГц
    Частота кадров : 31, 250 кадров/сек (1536 SPF)
    Битовая глубина : 16 бит
    Метод сжатия : С потерями
    Размер потока : 336 Мбайт (2%)
    Заголовок : Перевод: Авторский (одноголосый закадровый) Юрий Немахов
    Язык : Russian
    Service kind : Complete Main
    Default : Нет
    Forced : Нет
    Аудио #7
    Идентификатор : 11
    Формат : AC-3
    Формат/Информация : Audio Coding 3
    Параметр Endianness формата : Big
    Идентификатор кодека : A_AC3
    Продолжительность : 2 ч. 2 м.
    Вид битрейта : Постоянный
    Битрейт : 640 Кбит/сек
    Каналы : 6 каналов
    Расположение каналов : Front: L C R, Side: L R, LFE
    Частота : 48, 0 КГц
    Частота кадров : 31, 250 кадров/сек (1536 SPF)
    Битовая глубина : 16 бит
    Метод сжатия : С потерями
    Размер потока : 560 Мбайт (3%)
    Заголовок : Перевод: Одноголосый закадровый, Андрей Важенин/BadBajo
    Язык : Russian
    Service kind : Complete Main
    Default : Нет
    Forced : Нет
    Текст #1
    Идентификатор : 3
    Формат : UTF-8
    Идентификатор кодека : S_TEXT/UTF8
    Идентификатор кодека/Информация : UTF-8 Plain Text
    Продолжительность : 1 ч. 27 м.
    Битрейт : 6 бит/сек
    Count of elements : 172
    Размер потока : 4, 44 Кбайт (0%)
    Заголовок : English Forced
    Язык : English
    Default : Нет
    Forced : Нет
    Текст #2
    Идентификатор : 4
    Формат : PGS
    Режим смешивания : zlib
    Идентификатор кодека : S_HDMV/PGS
    Идентификатор кодека/Информация : Picture based subtitle format used on BDs/HD-DVDs
    Продолжительность : 2 ч. 1 м.
    Битрейт : 24, 1 Кбит/сек
    Count of elements : 2098
    Размер потока : 20, 9 Мбайт (0%)
    Заголовок : English SDH
    Язык : English
    Default : Нет
    Forced : Нет
    Текст #3
    Идентификатор : 5
    Формат : PGS
    Режим смешивания : zlib
    Идентификатор кодека : S_HDMV/PGS
    Идентификатор кодека/Информация : Picture based subtitle format used on BDs/HD-DVDs
    Продолжительность : 1 ч. 52 м.
    Битрейт : 20, 3 Кбит/сек
    Count of elements : 1624
    Размер потока : 16, 4 Мбайт (0%)
    Язык : English
    Default : Нет
    Forced : Нет
    Текст #4
    Идентификатор : 12
    Формат : UTF-8
    Идентификатор кодека : S_TEXT/UTF8
    Идентификатор кодека/Информация : UTF-8 Plain Text
    Продолжительность : 1 ч. 53 м.
    Битрейт : 5 бит/сек
    Count of elements : 153
    Размер потока : 4, 80 Кбайт (0%)
    Заголовок : Форсированные
    Язык : Russian
    Default : Да
    Forced : Да
    Текст #5
    Идентификатор : 13
    Формат : UTF-8
    Идентификатор кодека : S_TEXT/UTF8
    Идентификатор кодека/Информация : UTF-8 Plain Text
    Продолжительность : 1 ч. 53 м.
    Битрейт : 54 бит/сек
    Count of elements : 966
    Размер потока : 45, 2 Кбайт (0%)
    Заголовок : Полные - porcellus
    Язык : Russian
    Default : Нет
    Forced : Нет
    Меню
    00: 00: 00.000 : en: Chapter 01
    00: 06: 38.189 : en: Chapter 02
    00: 14: 45.593 : en: Chapter 03
    00: 18: 48.502 : en: Chapter 04
    00: 27: 08.335 : en: Chapter 05
    00: 34: 08.964 : en: Chapter 06
    00: 42: 28.671 : en: Chapter 07
    00: 51: 10.442 : en: Chapter 08
    01: 00: 58.071 : en: Chapter 09
    01: 09: 20.114 : en: Chapter 10
    01: 14: 26.796 : en: Chapter 11
    01: 23: 24.958 : en: Chapter 12
    01: 28: 41.358 : en: Chapter 13
    01: 35: 38.900 : en: Chapter 14
    01: 41: 44.348 : en: Chapter 15
    01: 46: 15.494 : en: Chapter 16
    XMP
    Xmp.video.FileName : E: VideoУбийца (Sicario)2018 Против всех (Sicario 2. Soldado).mkv
    Xmp.video.FileSize : -9.53674e-007
    Xmp.video.MimeType : video/matroska
    Xmp.video.EBMLVersion : 1
    Xmp.video.EBMLReadVersion : 1
    Xmp.video.DocType : matroska
    Xmp.video.DocTypeVersion : 4
    Xmp.video.DocTypeReadVersion : 2
    Xmp.video.TimecodeScale : 0.001
    Xmp.video.MuxingApp : libebml v1.3.7 + libmatroska v1.5.0
    Xmp.video.WritingApp : mkvmerge v34.0.0 (\'Sight and Seen\') 64-bit
    Xmp.video.Duration : 7344352
    Xmp.video.DateUTC : 593510177
    Xmp.video.Title : Убийца 2. Против всех/Sicario 2: Soldado/Sicario: Day of the Soldado
    Xmp.video.TotalStream : 546
    Xmp.video.TrackLacing : No
    Xmp.video.Codec : V_MPEGH/ISO/HEVC
    Xmp.video.FrameRate : 23.976
    Xmp.video.TrackLang : und
    Xmp.video.TrackName : РџРѕРные - porcellus
    Xmp.video.Width : 3840
    Xmp.video.Height : 1600
    Xmp.audio.DefaultOn : No
    Xmp.audio.Compressor : A_AC3
    Xmp.audio.DefaultDuration : 32000
    Xmp.audio.SampleRate : 48000
    Xmp.video.SubTDefaultOn : No
    Xmp.video.SubTTrackLacing : No
    Xmp.video.SubTCodec : S_TEXT/UTF8
    Xmp.audio.TrackLang : rus
    Xmp.audio.ChannelType : Stereo
    Xmp.audio.BitsPerSample : 16
    Xmp.video.SubTTrackForced : Yes
    Xmp.video.SubTLang : rus
    Xmp.video.AttachFileName : cover.png
    Xmp.video.AttachFileMIME : image/png
    Xmp.video.AttachFileUID : 4293112449311359861
    Xmp.video.AttachFileDesc : Cover
    Xmp.video.AspectRatio : 2.4
    H.265/HEVC (High Efficiency Video Coding) - это новый стандарт кодирования видео.
    *Рипы в фомате HEVC, в настоящее время поддерживается не всеми аппаратными проигрывателями.
    *Для корректного воспроизведения может потребоваться обновление ПО.
    *Стандарт H.265/HEVC является логическим продолжением стандарта H.264/AVC (Advanced Video Coding), и характеризуется более эффективными алгоритмами сжатия, а также поддержкой высокого разрешения вплоть до 8K UHD (8192x4320). Первая версия стандарта H.265 была опубликована в начале 2013 года.
    Любителям решения из коробки - установить последнюю версию на выбор:
    Media Player Classic - Black Edition (MPC-BE)
    VLC media player
    Daum Pot Player
    GOM Media Player
    Любителям WMP и других плееров, использующих по умолчанию для воспроизведения системные кодеки+сплитеры - установить K-Lite Codec Pack версии 10.1.0 и выше.
    Любимые плееры, не использующии по умолчанию для воспроизведения системные кодеки+сплитеры, нужно перенастроить на использование оных.Просмотр 4K HDR-контента на ПК

    Скриншоты для ознакомления



    Все релизы фильма Убийца 2. Против всех в Клубе H.265/HEVC (High Efficiency Video Coding) - это новый стандарт кодирования видео.
    *Рипы в фомате HEVC, в настоящее время поддерживается не всеми аппаратными проигрывателями.
    *Для корректного воспроизведения может потребоваться обновление ПО.
    *Стандарт H.265/HEVC является логическим продолжением стандарта H.264/AVC (Advanced Video Coding), и характеризуется более эффективными алгоритмами сжатия, а также поддержкой высокого разрешения вплоть до 8K UHD (8192x4320). Первая версия стандарта H.265 была опубликована в начале 2013 года.
    Любителям решения из коробки - установить последнюю версию на выбор:
    Media Player Classic - Black Edition (MPC-BE)
    VLC media player
    Daum Pot Player
    GOM Media Player
    Любителям WMP и других плееров, использующих по умолчанию для воспроизведения системные кодеки+сплитеры - установить K-Lite Codec Pack версии 10.1.0 и выше.
    Любимые плееры, не использующии по умолчанию для воспроизведения системные кодеки+сплитеры, нужно перенастроить на использование оных.Просмотр 4K HDR-контента на ПК
    Производство: США, Мексика/Black Label Media, Lionsgate, Thunder Road, Columbia Pictures Corporation
    Жанр: Боевик, Триллер, Драма, Криминал, Детектив
    Режиссер: Дени Вильнёв, Стефано Соллима

    Актеры
    Эмили Блант, Дэниэл Калуя, Бенисио Дель Торо, Изабела Монер, Джош Бролин, Джеффри Донован

    Описание

    Безлюдные пустоши, по которым проходит граница между Мексикой и США, — это территория без правил, поле битвы между мексиканскими наркокартелями и американскими спецслужбами, где исход войны с наркотрафиком не всегда складывается в пользу служителей закона.
    Продолжительность: 02: 01: 20 | 02: 02: 24
    Перевод: Дублированный, Многоголосый закадровый, Одноголосый закадровый x6
    Субтитры: русские (форсированные, полные), английские (форсированные полные, для слабослышащих)


    Скриншоты для ознакомления



    Все одноименные релизы в Клубе
    Время раздачи: с 11: 00 до 21: 00 по Новосибирску (UTC +7) (до появления первых 3-5 скачавших)

    Онлайн видео Убийца: Дилогия



    Убийца: Дилогия/Sicario: 2 Movie Collection (2015/2018) UHD BDRip [H.265/2160p] [4K, HDR, 10-bit]
    Рейтинг →
     (голосов: 1, оценка 5/5, голосовать можно 1 раз )

    Другие торренты по теме:

  • Признание убийцы (Признание спустя 22 года: Я - убийца) / 22-nenme no kokuhaku: watashi ga satsujinhan desu / Memoirs of a Murderer (2017) HDRip [MVO]
  • Akame ga Kill! / Убийца Акамэ! [2014, TV, 11 из 24] HDTV 720p Raw+Rus
  • Ниндзя-убийца / Ninja Assassin (2009) BDRip [H.264]
  • Мамочка-маньячка-убийца / Serial Mom (1994) DVDRip [H.264] [VO] скачать через торрент бесплатно
  • Истории спасения. Волна-убийца (2014) SATRip
  • Научное расследование Сергея Малозёмова: Город-убийца (2014) SATRip
  • Убийца зомби 1.0.4 - Zombie Road 3D [En] скачать через торрент бесплатно
  • Поехавший убийца / Crazy Murder (2014) DVDRip [VO] скачать через торрент бесплатно


    • Комментарии (0):

      Информация

      Информация

        Посетители, находящиеся в группе Гости, не могут оставлять комментарии в данной новости.

        ↓ Меню




        ↓ Опрос

        Вы добавили сайт в закладки?
        Да
        Нет


        Популярное