.
Авторизация | Регистрация

bitok.xyz

» » Невезучий папарацци / Ecco noi per esempio... (1977) BDRip [H.264] [AVO] торрент скачать бесплатно


    Невезучий папарацци / Ecco noi per esempio... (1977) BDRip [H.264] [AVO] торрент скачать бесплатно

    Дата: 26-10-2019, 05:00 | .torrent скачали: 1

    Невезучий папарацци / Ecco noi per esempio... (1977) BDRip [H.264] [AVO]Производство: Италия/Irrigazione Cinematografica
    Жанр: Комедия
    Режиссер: Серджио Корбуччи
    Продюсер: Акилле Мандзотти

    Актеры
    Адриано Челентано, Ренато Поццетто, Барбара Бах, Антонио Касагранде, Джулиана Каландра, Феличе Андреази, Франка Марци, Имма Пиро, Капюсин, Жорж Вильсон

    Описание

    Клик — бульварный фотограф, за которым гоняются то бандиты, попавшие в объектив на месте преступления, то разъяренные женщины, также оказавшееся в поле зрения журналиста. Однажды во время столкновения с полицией Клик познакомился с начинающим писателем Гуанзироле Пальмамброджо…

    Релиз от: Охрана (NNMCLUB)
    Продолжительность: 01: 55: 43
    Качество видео: BDRip
    Перевод: Авторский (Н.Живаго)
    Субтитры: Отсутствуют
    Видео: AVC/H.264, 1024x552, ~2815 Kbps
    Аудио 1: AC3, 2 ch, 192 Kbps, 48.0 kHz – Русский AVO (Н.Живаго)
    Аудио 2: AC3, 2 ch, 192 Kbps, 48.0 kHz – Итальянский
    Общее
    Уникальный идентификатор : 218147472998060277217782870924399826827 (0xA41DACD055B6908FB9E08DBE2CB9578B)
    Полное имя : B: DownloadsНевезучий папарацци. 1977. NNMCLUB.mkv
    Формат : Matroska
    Версия формата : Version 4/Version 2
    Размер файла : 2, 59 Гбайт
    Продолжительность : 1 ч. 55 м.
    Общий поток : 3201 Кбит/сек
    Дата кодирования : UTC 2019-10-25 11: 01: 54
    Программа кодирования : mkvmerge v7.9.0 (\'Birds\') 64bit
    Библиотека кодирования : libebml v1.3.1 + libmatroska v1.4.2
    Видео
    Идентификатор : 1
    Формат : AVC
    Формат/Информация : Advanced Video Codec
    Профиль формата : High@L4.1
    Настройки формата : CABAC/12 Ref Frames
    Параметр CABAC формата : Да
    Параметр RefFrames формата : 12 кадров
    Идентификатор кодека : V_MPEG4/ISO/AVC
    Продолжительность : 1 ч. 55 м.
    Битрейт : 2815 Кбит/сек
    Ширина : 1024 пикселя
    Высота : 552 пикселя
    Соотношение сторон : 1, 85: 1
    Режим частоты кадров : Постоянный
    Частота кадров : 23, 976 (24000/1001) кадра/сек
    Цветовое пространство : YUV
    Субдискретизация насыщенности : 4: 2: 0
    Битовая глубина : 8 бит
    Тип развёртки : Прогрессивная
    Бит/(Пиксели*Кадры) : 0.208
    Размер потока : 2, 28 Гбайт (88%)
    Заголовок : Ecco noi per esempio...
    Библиотека кодирования : x264 core 146 r2538 121396c
    Настройки программы : cabac=1/ref=12/deblock=1: -1: -1/analyse=0x3: 0x113/me=umh/subme=10/psy=1/psy_rd=1.00: 0.10/mixed_ref=1/me_range=32/chroma_me=1/trellis=2/8x8dct=1/cqm=0/deadzone=21, 11/fast_pskip=0/chroma_qp_offset=-3/threads=6/lookahead_threads=1/sliced_threads=0/nr=0/decimate=0/interlaced=0/bluray_compat=0/constrained_intra=0/bframes=7/b_pyramid=2/b_adapt=2/b_bias=0/direct=3/weightb=1/open_gop=0/weightp=2/keyint=250/keyint_min=25/scenecut=40/intra_refresh=0/rc_lookahead=60/rc=2pass/mbtree=1/bitrate=2815/ratetol=1.0/qcomp=0.60/qpmin=0/qpmax=69/qpstep=4/cplxblur=20.0/qblur=0.5/vbv_maxrate=14000/vbv_bufsize=14000/nal_hrd=none/filler=0/ip_ratio=1.40/aq=1: 1.00
    Язык : Italian
    Default : Да
    Forced : Нет
    Аудио #1
    Идентификатор : 2
    Формат : AC-3
    Формат/Информация : Audio Coding 3
    Идентификатор кодека : A_AC3
    Продолжительность : 1 ч. 55 м.
    Вид битрейта : Постоянный
    Битрейт : 192 Кбит/сек
    Каналы : 2 канала
    Расположение каналов : Front: L R
    Частота : 48, 0 КГц
    Частота кадров : 31, 250 кадров/сек (1536 SPF)
    Битовая глубина : 16 бит
    Метод сжатия : С потерями
    Размер потока : 159 Мбайт (6%)
    Заголовок : Авторский, Н.Живаго
    Язык : Russian
    ServiceKind/String : Complete Main
    Default : Да
    Forced : Нет
    Аудио #2
    Идентификатор : 3
    Формат : AC-3
    Формат/Информация : Audio Coding 3
    Идентификатор кодека : A_AC3
    Продолжительность : 1 ч. 55 м.
    Вид битрейта : Постоянный
    Битрейт : 192 Кбит/сек
    Каналы : 2 канала
    Расположение каналов : Front: L R
    Частота : 48, 0 КГц
    Частота кадров : 31, 250 кадров/сек (1536 SPF)
    Битовая глубина : 16 бит
    Метод сжатия : С потерями
    Размер потока : 159 Мбайт (6%)
    Заголовок : Итальянский
    Язык : Italian
    ServiceKind/String : Complete Main
    Default : Нет
    Forced : Нет

    Скриншоты для ознакомления




    Все одноименные релизы в Клубе
    Время раздачи: с 13: 00 до 01: 00 МСК, выходные круглосуточно (до появления первых 3-5 скачавших)

    Онлайн видео Невезучий папарацци



    Невезучий папарацци/Ecco noi per esempio... (1977) BDRip [H.264] [AVO]
    Рейтинг →
     (голосов: 1, оценка 4/5, голосовать можно 1 раз )

    Другие торренты по теме:

  • Невезучий / The Wrong Guy (1997) DVDRip [H.264]


    • Комментарии (0):

      Информация

      Информация

        Посетители, находящиеся в группе Гости, не могут оставлять комментарии в данной новости.

        ↓ Меню




        ↓ Опрос

        Вы добавили сайт в закладки?
        Да
        Нет


        Популярное