.
Авторизация | Регистрация

bitok.xyz

» » Робокоп / RoboCop (1987) BDRip [Remastered Directors Cut] торрент скачать бесплатно


    Робокоп / RoboCop (1987) BDRip [Remastered Directors Cut] торрент скачать бесплатно

    Дата: 26-10-2019, 05:00 | .torrent скачали: 0

    Робокоп / RoboCop (1987) BDRip [Remastered Directors Cut]Производство: США/Orion Pictures
    Жанр: Фантастика, Боевик, Триллер, Криминал
    Режиссер: Пол Верховен

    Актеры
    Питер Уэллер, Нэнси Аллен, Дэн О’Херлихи, Ронни Кокс, Кертвуд Смит, Мигель Феррер, Роберт Дукуй, Рэй Уайз, Фелтон Перри, Пол МакКрейн

    Описание

    После гибели одного из лучших полицейских врачи-экспериментаторы создают из него неуязвимого киборга Робокопа, который в одиночку борется с бандой преступников. Однако прочная броня не спасает Робокопа от мучительных, обрывочных воспоминаний о прошлом: он постоянно видит кошмарные сны, в которых погибает от рук жестоких преступников. Теперь он не только ждёт правосудия, ... но и жаждет мести!

    Возраст: 18+ (зрителям, достигшим 18 лет. запрещено для детей)
    Рейтинг MPAA: R (лицам до 17 лет обязательно присутствие взрослого)
    Продолжительность: 01: 43: 16
    Качество видео: BDRip (HQCLUB)
    Перевод: Дублированный, Многоголосый
    Субтитры: нет
    Видео: Xvid, 704x384, ~2113 kbps
    Аудио 1: AC3, 2 ch, 192 kbps - Русский, DUB (Paramount Channel)
    Аудио 2: AC3, 2 ch, 192 kbps - Русский, MVO (СТС/ОРТ)
    Аудио 3: AC3, 6 ch, 448 kbps - Английский (Оригинал)
    General
    Complete name : C: UsersLyova55DesktopRoboCop.DC.1987.avi
    Format : AVI
    Format/Info : Audio Video Interleave
    Format profile : OpenDML
    File size : 2.14 GiB
    Duration : 1 h 43 min
    Overall bit rate : 2 969 kb/s
    Writing application : VirtualDubMod 1.5.10.2 (build 2540/release)
    Writing library : VirtualDubMod build 2540/release
    Video
    ID : 0
    Format : MPEG-4 Visual
    Format profile : Advanced Simple@L5
    Format settings : BVOP1/Custom Matrix
    Format settings, BVOP : 1
    Format settings, QPel : No
    Format settings, GMC : No warppoints
    Format settings, Matrix : Custom
    Codec ID : XVID
    Codec ID/Hint : XviD
    Duration : 1 h 43 min
    Bit rate : 2 113 kb/s
    Width : 704 pixels
    Height : 384 pixels
    Display aspect ratio : 1.85: 1
    Frame rate : 23.976 (24000/1001) FPS
    Color space : YUV
    Chroma subsampling : 4: 2: 0
    Bit depth : 8 bits
    Scan type : Progressive
    Compression mode : Lossy
    Bits/(Pixel*Frame) : 0.326
    Stream size : 1.52 GiB (71%)
    Writing library : XviD 65
    Audio #1
    ID : 1
    Format : AC-3
    Format/Info : Audio Coding 3
    Commercial name : Dolby Digital
    Codec ID : 2000
    Duration : 1 h 43 min
    Bit rate mode : Constant
    Bit rate : 192 kb/s
    Channel(s) : 2 channels
    Channel layout : L R
    Sampling rate : 48.0 kHz
    Frame rate : 31.250 FPS (1536 SPF)
    Bit depth : 16 bits
    Compression mode : Lossy
    Stream size : 142 MiB (6%)
    Alignment : Split accross interleaves
    Interleave, duration : 42 ms (1.00 video frame)
    Interleave, preload duratio : 500 ms
    Service kind : Complete Main
    Audio #2
    ID : 2
    Format : AC-3
    Format/Info : Audio Coding 3
    Commercial name : Dolby Digital
    Codec ID : 2000
    Duration : 1 h 43 min
    Bit rate mode : Constant
    Bit rate : 192 kb/s
    Channel(s) : 2 channels
    Channel layout : L R
    Sampling rate : 48.0 kHz
    Frame rate : 31.250 FPS (1536 SPF)
    Bit depth : 16 bits
    Compression mode : Lossy
    Stream size : 142 MiB (6%)
    Alignment : Split accross interleaves
    Interleave, duration : 42 ms (1.00 video frame)
    Interleave, preload duratio : 500 ms
    Service kind : Complete Main
    Audio #3
    ID : 3
    Format : AC-3
    Format/Info : Audio Coding 3
    Commercial name : Dolby Digital
    Codec ID : 2000
    Duration : 1 h 43 min
    Bit rate mode : Constant
    Bit rate : 448 kb/s
    Channel(s) : 6 channels
    Channel layout : L R C LFE Ls Rs
    Sampling rate : 48.0 kHz
    Frame rate : 31.250 FPS (1536 SPF)
    Bit depth : 16 bits
    Compression mode : Lossy
    Stream size : 331 MiB (15%)
    Alignment : Split accross interleaves
    Interleave, duration : 42 ms (1.00 video frame)
    Interleave, preload duratio : 500 ms
    Service kind : Complete Main

    - В показе на Paramount Channel была вырезана сцена с ограблением магазина, поэтому в дубляже имеется вставка MVO Лицензия
    - Также многие надписи почему-то не были озвучены - поэтому пришлось смикшировать голос с лицензии Blu-Ray на надписи без озвучки.

    Скриншоты для ознакомления



    Все одноименные релизы в Клубе
    Время раздачи: 24/7 (мультитрекер)

    Онлайн видео Робокоп



    Робокоп/RoboCop (1987) BDRip [Remastered Directors Cut]
    Рейтинг →
     (голосов: 1, оценка 5/5, голосовать можно 1 раз )

    Другие торренты по теме:

  • РобоКоп / RoboCop (2014) HDRip [AVO] скачать через торрент бесплатно
  • РобоКоп / RoboCop (2014) BDRip [H.264 / 720p]
  • Робокоп / RoboCop (1994) DVDRip [H.264] (сезон 1, серии 1-22 из 22) OMSKBIRD
  • Робокоп / RoboCop (1987) BDRip [H.265 / 1080p] [Remastered Directors Cut]
  • Робокоп / RoboCop (1987) BDRip [H.264 / 1080p-LQ]
  • Робокоп / RoboCop (1987) BDRip [H.265 / 1080p-LQ] [Remastered Directors Cut]
  • РобоКоп / RoboCop (2014) BDRip 1080p [HEVC] 10bit
  • РобоКоп / RoboCop (1987) BDRip [H.265 / 1080p-LQ] [10-bit] [Remastered Directors Cut]


    • Комментарии (0):

      Информация

      Информация

        Посетители, находящиеся в группе Гости, не могут оставлять комментарии в данной новости.

        ↓ Меню




        ↓ Опрос

        Вы добавили сайт в закладки?
        Да
        Нет


        Популярное