.
Авторизация | Регистрация

bitok.xyz

» » Астерикс и Обеликс / Astérix et Obélix (1999-2012) BDRip [H.264 / 720p] [Квадрология] торрент скачать бесплатно


    Астерикс и Обеликс / Astérix et Obélix (1999-2012) BDRip [H.264 / 720p] [Квадрология] торрент скачать бесплатно

    Дата: 26-10-2019, 05:00 | .torrent скачали: 0

    Астерикс и Обеликс / Astérix et Obélix (1999-2012) BDRip [H.264 / 720p] [Квадрология]Год выпуска: 1999, 2001, 2008, 2012
    Производство: Франция, Италия, Германия/Pathe!, AMLF, Bavaria Entertainment, Canal+
    Жанр: фэнтези, комедия, приключения, семейный
    Режиссер: Клод Зиди, Ален Шаба, Фредерик Форестье, Тома Лангманн, Лоран Тирар

    Актеры
    Кристиан Клавье, Жерар Депардье, Роберто Бениньи, Мишель Галабрю, Клод Пьеплю, Даниэль Прево, Пьер Палмаде, Летиция Каста, Ариель Домбаль, Моника Белуччи, Ален Делон, Катрин Денёв

    Описание

    В 50-м году до нашей эры римский император Юлий Цезарь покорил Галлию. Только жители одной маленькой деревеньки отказались платить налоги римлянам. Ведь у них есть волшебный напиток, с помощью которого неразлучные друзья Астерикс и Обеликс становятся супергероями, способными сразиться со всей Римской империей…
    Продолжительность: 01: 50: 02/01: 48: 00/01: 57: 14/01: 50: 07
    Качество видео: BDRip
    Перевод: Дублированный
    Субтитры: русские, английские
    Видео: AVC/H.264, 1280x544/1280x548/1280x546, ~ 6140 - 6802 kbps
    Аудио: AC3, 6 ch, 384/448 kbps, Русский - дублированныйАстерикс и Обеликс против Цезаря/Astérix Obélix contre César (1999) BDRip
    Производство: Франция, Италия, Германия/Pathe!, AMLF, Bavaria Entertainment, Canal+
    Жанр: фэнтези, комедия, приключения, семейный
    Режиссер: Клод Зиди

    Актеры
    Кристиан Клавье, Жерар Депардье, Роберто Бениньи, Мишель Галабрю, Клод Пьеплю, Даниэль Прево, Пьер Палмаде, Летиция Каста, Ариель Домбаль

    Описание

    В 50-м году до нашей эры римский император Юлий Цезарь покорил Галлию. Только жители одной маленькой деревеньки отказались платить налоги римлянам. Ведь у них есть волшебный напиток, с помощью которого неразлучные друзья Астерикс и Обеликс становятся супергероями, способными сразиться со всей Римской империей…

    Возраст: 12+ (зрителям, достигшим 12 лет)
    Продолжительность: 01: 50: 02
    Качество видео: BDRip
    Перевод: Дублированный
    Субтитры: русские, английские
    Видео: AVC/H.264, 1280x548, ~ 6599 kbps
    Аудио: AC3, 6 ch, 448 kbps, Русский (DUB)
    Общее
    Уникальный идентификатор : 182739450423299491142406242567647729559 (0x897A56847CFC8169959D3CD03AA11797)
    Полное имя : D: FILMSAsteriks.i.ObeliksAsteriks.i.Obeliks.Protiv.Tcezarya.1999.BDRip.720p.mkv
    Формат : Matroska
    Версия формата : Version 4
    Размер файла : 5, 42 Гбайт
    Продолжительность : 1 ч. 50 м.
    Общий поток : 7048 Кбит/сек
    Название фильма : Asterix et Obelix contre Cesar (1999) - HELLYWOOD
    Дата кодирования : UTC 2019-09-30 04: 21: 45
    Программа кодирования : mkvmerge v8.2.0 (\'World of Adventure\') 64bit
    Библиотека кодирования : libebml v1.3.1 + libmatroska v1.4.2
    Видео
    Идентификатор : 1
    Формат : AVC
    Формат/Информация : Advanced Video Codec
    Профиль формата : High@L4.1
    Настройки формата : CABAC/9 Ref Frames
    Параметр CABAC формата : Да
    Параметр RefFrames формата : 9 кадров
    Идентификатор кодека : V_MPEG4/ISO/AVC
    Продолжительность : 1 ч. 50 м.
    Битрейт : 6599 Кбит/сек
    Ширина : 1280 пикселей
    Высота : 548 пикселей
    Соотношение сторон : 2, 35: 1
    Режим частоты кадров : Постоянный
    Частота кадров : 23, 976 (24000/1001) кадра/сек
    Цветовое пространство : YUV
    Субдискретизация насыщенности : 4: 2: 0
    Битовая глубина : 8 бит
    Тип развёртки : Прогрессивная
    Бит/(Пиксели*Кадры) : 0.392
    Размер потока : 5, 07 Гбайт (94%)
    Заголовок : potroks
    Библиотека кодирования : x264 core 146 r2538 121396c
    Настройки программы : cabac=1/ref=9/deblock=1: -3: -3/analyse=0x3: 0x113/me=umh/subme=11/psy=1/psy_rd=1.01: 0.06/mixed_ref=1/me_range=48/chroma_me=1/trellis=2/8x8dct=1/cqm=0/deadzone=21, 11/fast_pskip=0/chroma_qp_offset=-3/threads=9/lookahead_threads=2/sliced_threads=0/nr=0/decimate=0/interlaced=0/bluray_compat=0/constrained_intra=0/bframes=10/b_pyramid=2/b_adapt=2/b_bias=0/direct=3/weightb=1/open_gop=0/weightp=2/keyint=240/keyint_min=23/scenecut=40/intra_refresh=0/rc_lookahead=60/rc=2pass/mbtree=0/bitrate=6599/ratetol=1.0/qcomp=0.70/qpmin=0/qpmax=69/qpstep=4/cplxblur=20.0/qblur=0.5/vbv_maxrate=14000/vbv_bufsize=14000/nal_hrd=none/filler=0/ip_ratio=1.35/pb_ratio=1.25/aq=1: 0.80
    Язык : English
    Default : Да
    Forced : Нет
    Аудио
    Идентификатор : 2
    Формат : AC-3
    Формат/Информация : Audio Coding 3
    Коммерческое название : Dolby Digital
    Идентификатор кодека : A_AC3
    Продолжительность : 1 ч. 50 м.
    Вид битрейта : Постоянный
    Битрейт : 448 Кбит/сек
    Каналы : 6 каналов
    ChannelLayout : L R C LFE Ls Rs
    Частота : 48, 0 КГц
    Частота кадров : 31, 250 кадров/сек (1536 SPF)
    Метод сжатия : С потерями
    Размер потока : 353 Мбайт (6%)
    Заголовок : Dub | DD 5.1 @ 448 kbps
    Язык : Russian
    ServiceKind/String : Complete Main
    Default : Да
    Forced : Нет
    Текст
    Идентификатор : 3
    Формат : UTF-8
    Идентификатор кодека : S_TEXT/UTF8
    Идентификатор кодека/Информация : UTF-8 Plain Text
    Продолжительность : 1 ч. 44 м.
    Битрейт : 76 бит/сек
    ElementCount : 1061
    Размер потока : 58, 5 Кбайт (0%)
    Язык : Russian
    Default : Нет
    Forced : Нет
    Меню
    00: 00: 00.000 : en: Chapter 01
    00: 04: 59.465 : en: Chapter 02
    00: 08: 29.592 : en: Chapter 03
    00: 18: 01.455 : en: Chapter 04
    00: 28: 17.695 : en: Chapter 05
    00: 37: 58.526 : en: Chapter 06
    00: 45: 36.400 : en: Chapter 07
    00: 53: 28.246 : en: Chapter 08
    01: 01: 52.417 : en: Chapter 09
    01: 09: 29.707 : en: Chapter 10
    01: 17: 56.963 : en: Chapter 11
    01: 21: 28.884 : en: Chapter 12
    01: 24: 40.450 : en: Chapter 13
    01: 30: 11.363 : en: Chapter 14
    01: 38: 49.381 : en: Chapter 15
    01: 45: 30.365 : en: Chapter 16

    Скриншоты для ознакомления



    Все одноименные релизы в Клубе Астерикс и Обеликс: Миссия Клеопатра/Astérix Obélix: Mission Cléopâtre (2002) BDRip
    Производство: Франция, Германия/Pathe!, Canal+, Centre National de la Cinématographie (CNC), Chez Wam
    Жанр: фэнтези, комедия, приключения, семейный
    Режиссер: Ален Шаба

    Актеры
    Жерар Депардье, Кристиан Клавье, Жамель Деббуз, Моника Беллуччи, Ален Шаба, Клод Риш, Жерар Дармон, Эдуард Баэр, Дьедонне, Мусс Диуф

    Описание

    Великая Клеопатра заключила пари с римским императором Юлием Цезарем о том, что ее подданные смогут всего за три месяца построить грандиозный золотой дворец. Этой опасной чести был удостоен архитектор Нумеробис, которого — в случае неудачи — должны растерзать крокодилы.
    Нумеробис вызывает на помощь своего старого друга — друида Панорамикса с зельем, дарующим сверхъестественную силу. А веселые, находчивые Астерикс и Обеликс сопровождают старца в Египет, чтобы помешать проискам Цезаря, не желающего проигрывать Клеопатре.

    Возраст: 12+ (зрителям, достигшим 12 лет)
    Рейтинг MPAA: PG (рекомендуется присутствие родителей)
    Продолжительность: 01: 48: 00
    Качество видео: BDRip
    Перевод: Дублированный
    Субтитры: русские, английские
    Видео: AVC/H.264, 1280x544, ~ 6802 kbps
    Аудио: AC3, 6 ch, 384 kbps, Русский (DUB)
    Общее
    Уникальный идентификатор : 180887902111335981144665636269206191990 (0x8815BE233FCF01439B9CD0970A06BF76)
    Полное имя : D: FILMSAsteriks.i.ObeliksAsteriks.i.Obeliks.Missiya.Kleopatra.2001.BDRip.720p.mkv
    Формат : Matroska
    Версия формата : Version 4
    Размер файла : 5, 42 Гбайт
    Продолжительность : 1 ч. 48 м.
    Общий поток : 7186 Кбит/сек
    Название фильма : Asterix et Obelix contre Cesar (1999) - HELLYWOOD
    Дата кодирования : UTC 2019-09-30 04: 26: 38
    Программа кодирования : mkvmerge v8.2.0 (\'World of Adventure\') 64bit
    Библиотека кодирования : libebml v1.3.1 + libmatroska v1.4.2
    Видео
    Идентификатор : 1
    Формат : AVC
    Формат/Информация : Advanced Video Codec
    Профиль формата : High@L4.1
    Настройки формата : CABAC/9 Ref Frames
    Параметр CABAC формата : Да
    Параметр RefFrames формата : 9 кадров
    Идентификатор кодека : V_MPEG4/ISO/AVC
    Продолжительность : 1 ч. 48 м.
    Битрейт : 6802 Кбит/сек
    Ширина : 1280 пикселей
    Высота : 544 пикселя
    Соотношение сторон : 2, 35: 1
    Режим частоты кадров : Постоянный
    Частота кадров : 24, 000 кадра/сек
    Цветовое пространство : YUV
    Субдискретизация насыщенности : 4: 2: 0
    Битовая глубина : 8 бит
    Тип развёртки : Прогрессивная
    Бит/(Пиксели*Кадры) : 0.407
    Размер потока : 5, 13 Гбайт (95%)
    Заголовок : potroks
    Библиотека кодирования : x264 core 146 r2538 121396c
    Настройки программы : cabac=1/ref=9/deblock=1: -3: -3/analyse=0x3: 0x113/me=umh/subme=11/psy=1/psy_rd=1.00: 0.06/mixed_ref=1/me_range=48/chroma_me=1/trellis=2/8x8dct=1/cqm=0/deadzone=21, 11/fast_pskip=0/chroma_qp_offset=-3/threads=9/lookahead_threads=2/sliced_threads=0/nr=0/decimate=0/interlaced=0/bluray_compat=0/constrained_intra=0/bframes=10/b_pyramid=2/b_adapt=2/b_bias=0/direct=3/weightb=1/open_gop=0/weightp=2/keyint=240/keyint_min=23/scenecut=40/intra_refresh=0/rc_lookahead=60/rc=2pass/mbtree=0/bitrate=6802/ratetol=1.0/qcomp=0.70/qpmin=0/qpmax=69/qpstep=4/cplxblur=20.0/qblur=0.5/vbv_maxrate=14000/vbv_bufsize=14000/nal_hrd=none/filler=0/ip_ratio=1.40/pb_ratio=1.30/aq=1: 0.80
    Язык : English
    Default : Да
    Forced : Нет
    Аудио
    Идентификатор : 2
    Формат : AC-3
    Формат/Информация : Audio Coding 3
    Коммерческое название : Dolby Digital
    Идентификатор кодека : A_AC3
    Продолжительность : 1 ч. 48 м.
    Вид битрейта : Постоянный
    Битрейт : 384 Кбит/сек
    Каналы : 6 каналов
    ChannelLayout : L R C LFE Ls Rs
    Частота : 48, 0 КГц
    Частота кадров : 31, 250 кадров/сек (1536 SPF)
    Метод сжатия : С потерями
    Размер потока : 297 Мбайт (5%)
    Заголовок : Dub | DD 5.1 @ 384 kbps - R5
    Язык : Russian
    ServiceKind/String : Complete Main
    Default : Да
    Forced : Нет
    Текст #1
    Идентификатор : 3
    Формат : UTF-8
    Идентификатор кодека : S_TEXT/UTF8
    Идентификатор кодека/Информация : UTF-8 Plain Text
    Продолжительность : 1 ч. 46 м.
    Битрейт : 106 бит/сек
    ElementCount : 1313
    Размер потока : 82, 7 Кбайт (0%)
    Заголовок : v1
    Язык : Russian
    Default : Нет
    Forced : Нет
    Текст #2
    Идентификатор : 4
    Формат : UTF-8
    Идентификатор кодека : S_TEXT/UTF8
    Идентификатор кодека/Информация : UTF-8 Plain Text
    Продолжительность : 1 ч. 41 м.
    Битрейт : 93 бит/сек
    ElementCount : 1336
    Размер потока : 69, 7 Кбайт (0%)
    Заголовок : v2
    Язык : Russian
    Default : Нет
    Forced : Нет
    Текст #3
    Идентификатор : 5
    Формат : UTF-8
    Идентификатор кодека : S_TEXT/UTF8
    Идентификатор кодека/Информация : UTF-8 Plain Text
    Продолжительность : 1 ч. 45 м.
    Битрейт : 53 бит/сек
    ElementCount : 1291
    Размер потока : 41, 4 Кбайт (0%)
    Заголовок : Full
    Язык : English
    Default : Нет
    Forced : Нет
    Меню
    00: 00: 00.000 : : Chapter 01
    00: 04: 27.375 : : Chapter 02
    00: 09: 58.290 : : Chapter 03
    00: 13: 53.665 : : Chapter 04
    00: 19: 14.125 : : Chapter 05
    00: 24: 49.375 : : Chapter 06
    00: 31: 04.083 : : Chapter 07
    00: 35: 07.625 : : Chapter 08
    00: 38: 57.833 : : Chapter 09
    00: 42: 57.083 : : Chapter 10
    00: 46: 00.625 : : Chapter 11
    00: 51: 45.458 : : Chapter 12
    00: 58: 06.375 : : Chapter 13
    01: 02: 52.750 : : Chapter 14
    01: 08: 53.457 : : Chapter 15
    01: 13: 41.291 : : Chapter 16
    01: 18: 28.791 : : Chapter 17
    01: 23: 42.416 : : Chapter 18
    01: 30: 48.832 : : Chapter 19
    01: 36: 48.500 : : Chapter 20
    01: 40: 47.125 : : Chapter 21
    01: 42: 14.458 : : Chapter 22

    Скриншоты для ознакомления



    Все одноименные релизы в Клубе Астерикс на Олимпийских играх/Astérix aux jeux olympiques (2008) BDRip
    Производство: Франция, Германия, Испания, Италия, Бельгия/Pathé Renn Productions, La Petite Reine, TF1 Films Production
    Жанр: фэнтези, комедия, приключения, семейный
    Режиссер: Фредерик Форестье, Тома Лангманн

    Актеры
    Жерар Депардье, Кловис Корнийяк, Бенуа Пульворд, Ален Делон, Ванесса Эсслер, Франк Дюбоск, Хосе Гарсия, Стефан Руссо, Жан-Пьер Кассель, Эли Семун

    Описание

    50 лет до Рождества Христова. Вся Галлия под властью Римской Империи. Но не стоит огорчаться: одна деревня продолжает героическое сопротивление. Ведь ее жители уверены в собственной непобедимости.
    Уже несколько месяцев сердце Полюбвикса бьется только ради греческой принцессы Ирины. Но, увы, он не единственный претендент на ее руку. Большая политика предназначила Ирину в жены Бруту, сыну Юлия Цезаря. Чтобы оттянуть нежеланный брак и дать шанс Полюбвиксу Ирина объявляет, что выйдет замуж за победителя Олимпийских Игр. Итак, Полюбвикс приступает к тренировкам под руководством тех, кто быстрее, выше, сильнее, и, разумеется, умнее всех — Астерикса и Обеликса. А хитрый Брут — к разработке коварного плана.

    Возраст: 12+ (зрителям, достигшим 12 лет)
    Продолжительность: 01: 57: 14
    Качество видео: BDRip
    Перевод: Дублированный
    Субтитры: русские, английские
    Видео: AVC/H.264, 1280x546, ~ 6140 kbps
    Аудио: AC3, 6 ch, 448 kbps, Русский (DUB)
    Общее
    Уникальный идентификатор : 173297416749303639023758773215455603758 (0x825FDE50CA024D598B5C57C936ABEC2E)
    Полное имя : D: FILMSAsteriks.i.ObeliksAsteriks.na.Olimpiyskih.Igrah.2008.BDRip.720p.mkv
    Формат : Matroska
    Версия формата : Version 4
    Размер файла : 5, 39 Гбайт
    Продолжительность : 1 ч. 57 м.
    Общий поток : 6587 Кбит/сек
    Название фильма : Asterix et Obelix contre Cesar (1999) - HELLYWOOD
    Дата кодирования : UTC 2019-09-30 04: 38: 21
    Программа кодирования : mkvmerge v8.2.0 (\'World of Adventure\') 64bit
    Библиотека кодирования : libebml v1.3.1 + libmatroska v1.4.2
    Видео
    Идентификатор : 1
    Формат : AVC
    Формат/Информация : Advanced Video Codec
    Профиль формата : High@L4.1
    Настройки формата : CABAC/9 Ref Frames
    Параметр CABAC формата : Да
    Параметр RefFrames формата : 9 кадров
    Идентификатор кодека : V_MPEG4/ISO/AVC
    Продолжительность : 1 ч. 57 м.
    Битрейт : 6140 Кбит/сек
    Ширина : 1280 пикселей
    Высота : 546 пикселей
    Соотношение сторон : 2, 35: 1
    Режим частоты кадров : Постоянный
    Частота кадров : 24, 000 кадра/сек
    Цветовое пространство : YUV
    Субдискретизация насыщенности : 4: 2: 0
    Битовая глубина : 8 бит
    Тип развёртки : Прогрессивная
    Бит/(Пиксели*Кадры) : 0.366
    Размер потока : 5, 03 Гбайт (93%)
    Заголовок : potroks
    Библиотека кодирования : x264 core 146 r2538 121396c
    Настройки программы : cabac=1/ref=9/deblock=1: -3: -3/analyse=0x3: 0x113/me=umh/subme=11/psy=1/psy_rd=1.00: 0.06/mixed_ref=1/me_range=48/chroma_me=1/trellis=2/8x8dct=1/cqm=0/deadzone=21, 11/fast_pskip=0/chroma_qp_offset=-3/threads=9/lookahead_threads=2/sliced_threads=0/nr=0/decimate=0/interlaced=0/bluray_compat=0/constrained_intra=0/bframes=10/b_pyramid=2/b_adapt=2/b_bias=0/direct=3/weightb=1/open_gop=0/weightp=2/keyint=240/keyint_min=23/scenecut=40/intra_refresh=0/rc_lookahead=60/rc=2pass/mbtree=0/bitrate=6140/ratetol=1.0/qcomp=0.70/qpmin=0/qpmax=69/qpstep=4/cplxblur=20.0/qblur=0.5/vbv_maxrate=14000/vbv_bufsize=14000/nal_hrd=none/filler=0/ip_ratio=1.35/pb_ratio=1.25/aq=1: 0.80
    Язык : English
    Default : Да
    Forced : Нет
    Аудио
    Идентификатор : 2
    Формат : AC-3
    Формат/Информация : Audio Coding 3
    Коммерческое название : Dolby Digital
    Идентификатор кодека : A_AC3
    Продолжительность : 1 ч. 57 м.
    Вид битрейта : Постоянный
    Битрейт : 448 Кбит/сек
    Каналы : 6 каналов
    ChannelLayout : L R C LFE Ls Rs
    Частота : 48, 0 КГц
    Частота кадров : 31, 250 кадров/сек (1536 SPF)
    Метод сжатия : С потерями
    Размер потока : 375 Мбайт (7%)
    Заголовок : Dub | DD 5.1 @ 448 kbps
    Язык : Russian
    ServiceKind/String : Complete Main
    Default : Да
    Forced : Нет
    Текст #1
    Идентификатор : 3
    Формат : UTF-8
    Идентификатор кодека : S_TEXT/UTF8
    Идентификатор кодека/Информация : UTF-8 Plain Text
    Продолжительность : 2 м. 31 с.
    Битрейт : 11 бит/сек
    ElementCount : 3
    Размер потока : 214 байт (0%)
    Заголовок : Forced
    Язык : Russian
    Default : Да
    Forced : Нет
    Текст #2
    Идентификатор : 4
    Формат : UTF-8
    Идентификатор кодека : S_TEXT/UTF8
    Идентификатор кодека/Информация : UTF-8 Plain Text
    Продолжительность : 1 ч. 53 м.
    Битрейт : 96 бит/сек
    ElementCount : 1265
    Размер потока : 80, 5 Кбайт (0%)
    Язык : Russian
    Default : Нет
    Forced : Нет
    Текст #3
    Идентификатор : 5
    Формат : UTF-8
    Идентификатор кодека : S_TEXT/UTF8
    Идентификатор кодека/Информация : UTF-8 Plain Text
    Продолжительность : 1 ч. 53 м.
    Битрейт : 39 бит/сек
    ElementCount : 1261
    Размер потока : 33, 0 Кбайт (0%)
    Язык : English
    Default : Нет
    Forced : Нет
    Текст #4
    Идентификатор : 6
    Формат : UTF-8
    Идентификатор кодека : S_TEXT/UTF8
    Идентификатор кодека/Информация : UTF-8 Plain Text
    Продолжительность : 1 ч. 54 м.
    Битрейт : 62 бит/сек
    ElementCount : 1589
    Размер потока : 52, 2 Кбайт (0%)
    Язык : French
    Default : Нет
    Forced : Нет
    Меню
    00: 00: 00.000 : en: Вестник любви
    00: 06: 49.523 : en: Претенденты
    00: 16: 09.457 : en: Цезарь
    00: 21: 36.033 : en: Мы же римляне!
    00: 28: 57.725 : en: Колдун
    00: 33: 17.359 : en: Олимпия
    00: 40: 14.651 : en: Начало игр
    00: 49: 54.605 : en: Дисквалификация
    00: 55: 59.345 : en: Ночное свидание
    01: 01: 07.778 : en: Секретное оружие
    01: 13: 09.749 : en: Коварный план
    01: 24: 49.198 : en: Гонка на колесницах
    01: 31: 40.859 : en: Страсти накаляются
    01: 40: 38.271 : en: Допинг
    01: 47: 02.405 : en: Свадьба

    Скриншоты для ознакомления



    Все одноименные релизы в Клубе Астерикс и Обеликс в Британии/Astérix Obélix: Au service de sa Majesté (2012) BDRip
    Производство: Франция, Венгрия, Италия, Испания/Fidélité Films, Wild Bunch, Cinetotal
    Жанр: комедия, приключения, семейный
    Режиссер: Лоран Тирар

    Актеры
    Жерар Депардье, Эдуард Баэр, Гийом Гальенн, Венсан Лакост, Валери Лемерсье, Фабрис Лукини, Катрин Денёв, Шарлотта Лебон, Боли Ланнерс, Дэни Бун

    Описание

    Пятидесятый год до нашей эры. Юлий Цезарь рвется к новым завоеваниям. Во главе своих прославленных легионов он собирается захватить остров, который находится на самом краю света — таинственную страну, именуемую Британией.
    Войско Цезаря одерживает быструю и безоговорочную победу. Ну… почти безоговорочную: одна крошечная деревушка продолжает яростно обороняться, однако силы на исходе, и королева бриттов Корделия отправляет своего самого надежного офицера Красовакса за подмогой в Галлию, где находится такая же маленькая деревушка, известная своим упорным сопротивлением римлянам.
    Между тем, у Астерикса с Обеликсом и так забот хватает. Вождь поручил им сделать настоящего мужчину из Гадорикса, своего надоедливого племянника, недавно приехавшего из Лютеции, а выполнить это крайне непросто. Когда к галлам приезжает Красовакс, те снабжают его бочонком своего знаменитого волшебного зелья, а Астерикс и Обеликс отправляются вместе с ним в Британию. Гадорикса они тоже берут с собой, ведь путешествие — отличный способ пополнить образование молодого человека.
    Но, к сожалению, все идет не так, как задумывалось…

    Возраст: 12+ (зрителям, достигшим 12 лет)
    Продолжительность: 01: 50: 07
    Качество видео: BDRip
    Перевод: Дублированный
    Субтитры: русские, английские
    Видео: AVC/H.264, 1280x544, ~ 6593 kbps
    Аудио: AC3, 6 ch, 448 kbps, Русский (DUB)
    Общее
    Уникальный идентификатор : 225287145319028229872550207622807992621 (0xA97CB9D641A4BB8AB85E55B43BEEB92D)
    Полное имя : D: FILMSAsteriks.i.ObeliksAsteriks.i.Obeliks.v.Britanii.2012.BDRip.720p.mkv
    Формат : Matroska
    Версия формата : Version 4
    Размер файла : 5, 41 Гбайт
    Продолжительность : 1 ч. 50 м.
    Общий поток : 7039 Кбит/сек
    Название фильма : Asterix et Obelix contre Cesar (1999) - HELLYWOOD
    Дата кодирования : UTC 2019-09-30 04: 49: 57
    Программа кодирования : mkvmerge v8.2.0 (\'World of Adventure\') 64bit
    Библиотека кодирования : libebml v1.3.1 + libmatroska v1.4.2
    Видео
    Идентификатор : 1
    Формат : AVC
    Формат/Информация : Advanced Video Codec
    Профиль формата : High@L4.1
    Настройки формата : CABAC/9 Ref Frames
    Параметр CABAC формата : Да
    Параметр RefFrames формата : 9 кадров
    Идентификатор кодека : V_MPEG4/ISO/AVC
    Продолжительность : 1 ч. 50 м.
    Битрейт : 6593 Кбит/сек
    Ширина : 1280 пикселей
    Высота : 544 пикселя
    Соотношение сторон : 2, 35: 1
    Режим частоты кадров : Постоянный
    Частота кадров : 23, 976 (24000/1001) кадра/сек
    Цветовое пространство : YUV
    Субдискретизация насыщенности : 4: 2: 0
    Битовая глубина : 8 бит
    Тип развёртки : Прогрессивная
    Бит/(Пиксели*Кадры) : 0.395
    Размер потока : 5, 07 Гбайт (94%)
    Заголовок : potroks
    Библиотека кодирования : x264 core 146 r2538 121396c
    Настройки программы : cabac=1/ref=9/deblock=1: -3: -3/analyse=0x3: 0x113/me=umh/subme=11/psy=1/psy_rd=1.00: 0.06/mixed_ref=1/me_range=48/chroma_me=1/trellis=2/8x8dct=1/cqm=0/deadzone=21, 11/fast_pskip=0/chroma_qp_offset=-3/threads=9/lookahead_threads=2/sliced_threads=0/nr=0/decimate=0/interlaced=0/bluray_compat=0/constrained_intra=0/bframes=10/b_pyramid=2/b_adapt=2/b_bias=0/direct=3/weightb=1/open_gop=0/weightp=2/keyint=240/keyint_min=23/scenecut=40/intra_refresh=0/rc_lookahead=60/rc=2pass/mbtree=0/bitrate=6593/ratetol=1.0/qcomp=0.70/qpmin=0/qpmax=69/qpstep=4/cplxblur=20.0/qblur=0.5/vbv_maxrate=14000/vbv_bufsize=14000/nal_hrd=none/filler=0/ip_ratio=1.35/pb_ratio=1.25/aq=1: 0.80
    Язык : English
    Default : Да
    Forced : Нет
    Аудио
    Идентификатор : 2
    Формат : AC-3
    Формат/Информация : Audio Coding 3
    Коммерческое название : Dolby Digital
    Идентификатор кодека : A_AC3
    Продолжительность : 1 ч. 50 м.
    Вид битрейта : Постоянный
    Битрейт : 448 Кбит/сек
    Каналы : 6 каналов
    ChannelLayout : L R C LFE Ls Rs
    Частота : 48, 0 КГц
    Частота кадров : 31, 250 кадров/сек (1536 SPF)
    Метод сжатия : С потерями
    Размер потока : 353 Мбайт (6%)
    Заголовок : Dub | DD 5.1 @ 448 kbps - Blu-Ray RUS
    Язык : Russian
    ServiceKind/String : Complete Main
    Default : Да
    Forced : Нет
    Текст #1
    Идентификатор : 3
    Формат : UTF-8
    Идентификатор кодека : S_TEXT/UTF8
    Идентификатор кодека/Информация : UTF-8 Plain Text
    Продолжительность : 1 ч. 42 м.
    Битрейт : 124 бит/сек
    ElementCount : 1192
    Размер потока : 93, 1 Кбайт (0%)
    Заголовок : Blu-Ray
    Язык : Russian
    Default : Нет
    Forced : Нет
    Текст #2
    Идентификатор : 4
    Формат : UTF-8
    Идентификатор кодека : S_TEXT/UTF8
    Идентификатор кодека/Информация : UTF-8 Plain Text
    Продолжительность : 1 ч. 42 м.
    Битрейт : 64 бит/сек
    ElementCount : 1349
    Размер потока : 48, 0 Кбайт (0%)
    Язык : English
    Default : Нет
    Forced : Нет
    Меню
    00: 00: 00.000 : : Chapter 01
    00: 06: 00.777 : : Chapter 02
    00: 15: 09.199 : : Chapter 03
    00: 22: 58.168 : : Chapter 04
    00: 29: 16.588 : : Chapter 05
    00: 36: 26.559 : : Chapter 06
    00: 42: 32.299 : : Chapter 07
    00: 49: 52.823 : : Chapter 08
    00: 54: 20.924 : : Chapter 09
    01: 02: 13.938 : : Chapter 10
    01: 09: 40.634 : : Chapter 11
    01: 18: 59.317 : : Chapter 12
    01: 24: 40.784 : : Chapter 13
    01: 29: 14.223 : : Chapter 14
    01: 37: 28.843 : : Chapter 15
    01: 42: 58.755 : : Chapter 16

    Скриншоты для ознакомления



    Все одноименные релизы в Клубе
    Скриншоты для ознакомления



    Все одноименные релизы в Клубе
    Время раздачи: c 5 до 19 мск (до появления первых 3-5 скачавших)
    Год выпуска: 1999, 2001, 2008, 2012
    Производство: Франция, Италия, Германия/Pathe!, AMLF, Bavaria Entertainment, Canal+
    Жанр: фэнтези, комедия, приключения, семейный
    Режиссер: Клод Зиди, Ален Шаба, Фредерик Форестье, Тома Лангманн, Лоран Тирар

    Актеры
    Кристиан Клавье, Жерар Депардье, Роберто Бениньи, Мишель Галабрю, Клод Пьеплю, Даниэль Прево, Пьер Палмаде, Летиция Каста, Ариель Домбаль, Моника Белуччи, Ален Делон, Катрин Денёв

    Описание

    В 50-м году до нашей эры римский император Юлий Цезарь покорил Галлию. Только жители одной маленькой деревеньки отказались платить налоги римлянам. Ведь у них есть волшебный напиток, с помощью которого неразлучные друзья Астерикс и Обеликс становятся супергероями, способными сразиться со всей Римской империей…
    Продолжительность: 01: 50: 02/01: 48: 00/01: 57: 14/01: 50: 07
    Качество видео: BDRip
    Перевод: Дублированный
    Субтитры: русские, английские


    Онлайн видео Астерикс и Обеликс



    Астерикс и Обеликс/Astérix et Obélix (1999-2012) BDRip [H.264/720p] [Квадрология]
    Рейтинг →
     (голосов: 1, оценка 4/5, голосовать можно 1 раз )

    Другие торренты по теме:

  • Астерикс и Обеликс. Коллекция мультфильмов / Asterix and Obelix (1967 - 2014) BDRip [H.265 / 1080p] [10-bit]
  • Астерикс и Обеликс / Asterix & Obelix - Collectors Edition (1999-2012) BDRip [H.265 / 1080p] [10-bit]


    • Комментарии (0):

      Информация

      Информация

        Посетители, находящиеся в группе Гости, не могут оставлять комментарии в данной новости.

        ↓ Меню




        ↓ Опрос

        Вы добавили сайт в закладки?
        Да
        Нет


        Популярное