.
Авторизация | Регистрация

bitok.xyz

» » Формула мести / Мосгаз. Новое дело майора Черкасова (2019) HDTVRip (серии 1-8 из 8) торрент скачать бесплатно


    Формула мести / Мосгаз. Новое дело майора Черкасова (2019) HDTVRip (серии 1-8 из 8) торрент скачать бесплатно

    Дата: 26-10-2019, 05:00 | .torrent скачали: 3

    Формула мести / Мосгаз. Новое дело майора Черкасова (2019) HDTVRip (серии 1-8 из 8)Производство: Россия/ООО Студия Русский проект, ООО Красный квадрат
    Жанр: детектив, триллер
    Режиссер: Сергей Коротаев

    Актеры
    Андрей Смоляков, Марина Александрова, Александр Лазарев, Евгения Крюкова, Дарья Урсуляк, Светлана Немоляева, Алексей Бардуков, Юрий Чурсин, Александр Голубев, Сергей Гармаш и др.

    Описание

    Сериал является шестым в серии о майоре Черкасове (Мосгаз2012, Палач2014, Паук(Гознак) 2015, Шакал2016, Операция Сатана2018).
    В центре сюжета — все тот же майор милиции Иван Черкасов в исполнении Андрея Смолякова, которому предстоит раскрыть еще больше запутанных преступлений.
    1977 год. Иван Петрович Черкасов, как всегда, занят расследованием сложного и запутанного дела. С крыши сбросили студента архитектурного института. Его мать покончила с собой. Следы ведут на ипподром, где погиб жокей. И на окраине находят труп одного из служителей ипподрома. Подозреваемые – жители элитного дома, деятели культуры.
    Возраст: 16+ (зрителям, достигшим 16 лет)
    Дата российской премьеры: 21 октября 2019 (Первый канал)
    Продолжительность: ~00: 48: 00 серия
    Качество видео: HDTVRip
    Видео: Xvid, 720x400 (16: 9), ~1408 kbps
    Аудио: AC3, 2 ch, 192 kbps
    General
    Complete name : F: Мои сериалыFormula_mesti_S1_1-8iz8_2019_XviD_HDTVRipFormula_mesti_S1_1.avi
    Format : AVI
    Format/Info : Audio Video Interleave
    File size : 555 MiB
    Duration : 48 min 15 s
    Overall bit rate : 1 609 kb/s
    Writing application : VirtualDubMod 1.5.10.3 |www.virtualdub-fr.org|| (build 2550/release)
    Writing library : VirtualDub build 40716/release
    Video
    ID : 0
    Format : MPEG-4 Visual
    Format profile : Advanced Simple@L5
    Format settings : BVOP2
    Format settings, BVOP : 2
    Format settings, QPel : No
    Format settings, GMC : No warppoints
    Format settings, Matrix : Default (H.263)
    Codec ID : XVID
    Codec ID/Hint : XviD
    Duration : 48 min 15 s
    Bit rate : 1 408 kb/s
    Width : 720 pixels
    Height : 400 pixels
    Display aspect ratio : 16: 9
    Frame rate : 25.000 FPS
    Color space : YUV
    Chroma subsampling : 4: 2: 0
    Bit depth : 8 bits
    Scan type : Progressive
    Compression mode : Lossy
    Bits/(Pixel*Frame) : 0.195
    Stream size : 486 MiB (87%)
    Writing library : XviD 67
    Audio
    ID : 1
    Format : AC-3
    Format/Info : Audio Coding 3
    Commercial name : Dolby Digital
    Codec ID : 2000
    Duration : 48 min 15 s
    Bit rate mode : Constant
    Bit rate : 192 kb/s
    Channel(s) : 2 channels
    Channel layout : L R
    Sampling rate : 48.0 kHz
    Frame rate : 31.250 FPS (1536 SPF)
    Bit depth : 16 bits
    Compression mode : Lossy
    Stream size : 66.3 MiB (12%)
    Alignment : Split accross interleaves
    Interleave, duration : 40 ms (1.00 video frame)
    Interleave, preload duration : 500 ms
    Service kind : Complete Main

    Скриншоты для ознакомления



    Все одноименные релизы в Клубе
    Время раздачи: с 07: 00 до 23: 00 (до появления первых 3-5 скачавших)

    Онлайн видео Формула мести



    Формула мести/Мосгаз. Новое дело майора Черкасова (2019) HDTVRip (серии 1-8 из 8)
    Рейтинг →
     (голосов: 1, оценка 3/5, голосовать можно 1 раз )

    Другие торренты по теме:

  • Ольга Некрасова | Формула мести (2006) [MP3]
  • Формула мести / Мосгаз. Новое дело майора Черкасова (2019) SATRip [H.264] (сезон 6, серии 1-2 из 8) (обновляемая)


    • Комментарии (0):

      Информация

      Информация

        Посетители, находящиеся в группе Гости, не могут оставлять комментарии в данной новости.

        ↓ Меню




        ↓ Опрос

        Вы добавили сайт в закладки?
        Да
        Нет


        Популярное