.
Авторизация | Регистрация

bitok.xyz

» » Трудные подростки (2019) WEBRip [H.264] (сезон 1, серии 1-2 из 8) (обновляемая) торрент скачать бесплатно


    Трудные подростки (2019) WEBRip [H.264] (сезон 1, серии 1-2 из 8) (обновляемая) торрент скачать бесплатно

    Дата: 26-10-2019, 05:00 | .torrent скачали: 1

    Трудные подростки (2019) WEBRip [H.264] (сезон 1, серии 1-2 из 8) (обновляемая)Производство: Россия | More Originals, PROSPECT
    Жанр: драма
    Режиссер: Рустам Ильясов

    Актеры
    Никита Волков, Александр Лыков, Григорий Калинин, Вильма Кутавичюте, Виталий Андреев, Глеб Калюжный, Владимир Гарцунов, Анастасия Крылова, Тимофей Елецкий, Мила Ершова и др.

    Описание

    Популярный футболист Антон Ковалёв, отсидевший два года в тюрьме за пьяный дебош в кафе, выходит на свободу. Проступок перекрыл успешную карьеру Ковалёва, который ранее был капитаном сборной России. Репутация сбитого летчика не позволяет ему продолжить любимое дело и получить престижную работу. Некогда воспитывавший Антона глава центра трудных подростков Герман предлагает ему место в центре, чтобы подготовить непростых ребят к местной Олимпиаде. От безысходности Ковалев соглашается на предложение, но даже не представляет, насколько сложно будет найти общий язык с ребятами и какое важное место они могут занять в его жизни.

    Дата российской премьеры: 24 октября 2019 More TV
    Продолжительность: ~00: 25: 00 серия
    Качество видео: WEBRip
    Видео: AVC/H.264, 1024x576 (16: 9), ~1600 Kbps
    Аудио: AC3, 2 ch, 192 Kbps
    General
    Unique ID : 214676566012993267434849064332008318827 (0xA18133E31DB040C88D56BFBDC637676B)
    Complete name : D: Трудные_подростки_2019_WEBRip_AVCТрудные_подростки_2019_WEBRip_AVC_01.mkv
    Format : Matroska
    Format version : Version 2
    File size : 329 MiB
    Duration : 25 min 51 s
    Overall bit rate : 1 777 kb/s
    Encoded date : UTC 2019-10-24 17: 53: 05
    Writing application : mkvmerge v7.8.0 (\'River Man\') 32bit built on Apr 3 2015 12: 11: 22
    Writing library : libebml v1.3.1 + libmatroska v1.4.2
    Video
    ID : 1
    Format : AVC
    Format/Info : Advanced Video Codec
    Format profile : High@L4.1
    Format settings : CABAC/9 Ref Frames
    Format settings, CABAC : Yes
    Format settings, ReFrames : 9 frames
    Codec ID : V_MPEG4/ISO/AVC
    Duration : 25 min 51 s
    Bit rate : 1 600 kb/s
    Width : 1 024 pixels
    Height : 576 pixels
    Display aspect ratio : 16: 9
    Frame rate mode : Constant
    Frame rate : 25.000 FPS
    Color space : YUV
    Chroma subsampling : 4: 2: 0
    Bit depth : 8 bits
    Scan type : Progressive
    Bits/(Pixel*Frame) : 0.109
    Stream size : 287 MiB (87%)
    Writing library : x264 core 146 r2538 121396c
    Encoding settings : cabac=1/ref=9/deblock=1: -2: -1/analyse=0x3: 0x133/me=umh/subme=9/psy=1/psy_rd=1.00: 0.15/mixed_ref=1/me_range=32/chroma_me=1/trellis=2/8x8dct=1/cqm=0/deadzone=21, 11/fast_pskip=0/chroma_qp_offset=-3/threads=18/lookahead_threads=3/sliced_threads=0/nr=0/decimate=1/interlaced=0/bluray_compat=0/constrained_intra=0/bframes=9/b_pyramid=2/b_adapt=2/b_bias=0/direct=1/weightb=1/open_gop=0/weightp=2/keyint=250/keyint_min=25/scenecut=40/intra_refresh=0/rc=2pass/mbtree=0/bitrate=1600/ratetol=1.0/qcomp=0.60/qpmin=0/qpmax=69/qpstep=4/cplxblur=20.0/qblur=0.5/ip_ratio=1.40/pb_ratio=1.30/aq=2: 1.00
    Default : Yes
    Forced : No
    Color range : Limited
    Color primaries : BT.709
    Transfer characteristics : BT.709
    Matrix coefficients : BT.709
    Audio
    ID : 2
    Format : AC-3
    Format/Info : Audio Coding 3
    Commercial name : Dolby Digital
    Codec ID : A_AC3
    Duration : 25 min 51 s
    Bit rate mode : Constant
    Bit rate : 192 kb/s
    Channel(s) : 2 channels
    Channel layout : L R
    Sampling rate : 48.0 kHz
    Frame rate : 31.250 FPS (1536 SPF)
    Bit depth : 16 bits
    Compression mode : Lossy
    Stream size : 35.5 MiB (11%)
    Service kind : Complete Main
    Default : Yes
    Forced : No

    Скриншоты для ознакомления



    Все одноименные релизы в Клубе
    Время раздачи: 24/7 (до появления первых 3-5 скачавших)

    Трудные подростки (2019) WEBRip [H.264] (сезон 1, серии 1-2 из 8) (обновляемая)
    Рейтинг →
     (голосов: 1, оценка 3/5, голосовать можно 1 раз )

    Другие торренты по теме:

  • Трудные подростки (2019) WEBRip [H.264 / 1080p-LQ] (сезон 1, серии 1-2 из 8) (обновляемая)


    • Комментарии (0):

      Информация

      Информация

        Посетители, находящиеся в группе Гости, не могут оставлять комментарии в данной новости.

        ↓ Меню




        ↓ Опрос

        Вы добавили сайт в закладки?
        Да
        Нет


        Популярное