.
Авторизация | Регистрация

bitok.xyz

» » Медики Чикаго / Chicago Med (2019) WEB-DLRip [H.264 / 1080p-LQ] (сезон 5, серии 1-4 из 22) TVShows (обновляемая) торрент скачать бесплатно


    Медики Чикаго / Chicago Med (2019) WEB-DLRip [H.264 / 1080p-LQ] (сезон 5, серии 1-4 из 22) TVShows (обновляемая) торрент скачать бесплатно

    Дата: 26-10-2019, 05:00 | .torrent скачали: 0

    Медики Чикаго / Chicago Med (2019) WEB-DLRip [H.264 / 1080p-LQ] (сезон 5, серии 1-4 из 22) TVShows (обновляемая)Производство: США/Wolf Films, Universal Television
    Жанр: драма
    Режиссер: Майкл Ваксман, Чарльз С. Кэрролл, Фред Бернер

    Актеры
    Ник Гелфусс, Йайа ДаКоста, Торри ДеВито, Брайан Ти, С. Ипейта Меркерсон, Марлайн Эффлэк, Оливер Платт, Колин Доннелл, Эшленд Томас, Рэйчел ДиПилло и др.

    Описание

    Сериал рассказывает о команде врачей, работающих в чикагской больнице. Каждый день им приходится работать в полном хаосе и разбираться с уникальными случаями.

    Продолжительность: ~00: 42: 00 серия
    Качество видео: WEB-DLRip
    Перевод: многоголосый, профессиональный - TVShows
    Субтитры: английские
    Видео: AVC/H.264, 1920х1080 (16: 9), ~7527 Kbps
    Аудио 1: AC3, 6 ch, 384 kbps - русский
    Аудио 2: AC3, 6 ch, 640 kbps - английский
    General
    Unique ID : 94147874203833734289801648183142234212 (0x46D438944E1C94BF1C4CF6CC16ABB864)
    Complete name : E: фильмыChicago.Med.S05.1080p.TVShowsChicago.Med.S05E02.1080p.TVShows.mkv
    Format : Matroska
    Format version : Version 4/Version 2
    File size : 2.48 GiB
    Duration : 41 min 30 s
    Overall bit rate : 8 553 kb/s
    Encoded date : UTC 2019-10-06 10: 22: 20
    Writing application : mkvmerge v33.1.0 (\'Primrose\') 64-bit
    Writing library : libebml v1.3.7 + libmatroska v1.5.0
    Video
    ID : 1
    Format : AVC
    Format/Info : Advanced Video Codec
    Format profile : High@L4
    Format settings, CABAC : Yes
    Format settings, ReFrames : 4 frames
    Codec ID : V_MPEG4/ISO/AVC
    Duration : 41 min 30 s
    Bit rate mode : Constant
    Bit rate : 7 527 kb/s
    Nominal bit rate : 10 000 kb/s
    Width : 1 920 pixels
    Height : 1 080 pixels
    Display aspect ratio : 16: 9
    Frame rate mode : Constant
    Frame rate : 23.976 (24000/1001) FPS
    Color space : YUV
    Chroma subsampling : 4: 2: 0
    Bit depth : 8 bits
    Scan type : Progressive
    Bits/(Pixel*Frame) : 0.151
    Stream size : 2.18 GiB (88%)
    Default : Yes
    Forced : No
    Color range : Limited
    Color primaries : BT.709
    Transfer characteristics : BT.709
    Matrix coefficients : BT.709
    Audio #1
    ID : 2
    Format : AC-3
    Format/Info : Audio Coding 3
    Mode extension : CM (complete main)
    Format settings, Endianness : Big
    Codec ID : A_AC3
    Duration : 41 min 30 s
    Bit rate mode : Constant
    Bit rate : 384 kb/s
    Channel(s) : 6 channels
    Channel positions : Front: L C R, Side: L R, LFE
    Sampling rate : 48.0 kHz
    Frame rate : 31.250 FPS (1536 spf)
    Compression mode : Lossy
    Stream size : 114 MiB (4%)
    Title : TVShows
    Language : Russian
    Default : Yes
    Forced : Yes
    Audio #2
    ID : 3
    Format : E-AC-3
    Format/Info : Audio Coding 3
    Format settings, Endianness : Big
    Codec ID : A_EAC3
    Duration : 41 min 30 s
    Bit rate mode : Constant
    Bit rate : 640 kb/s
    Channel(s) : 6 channels
    Channel positions : Front: L C R, Side: L R, LFE
    Sampling rate : 48.0 kHz
    Frame rate : 187.500 FPS (256 spf)
    Compression mode : Lossy
    Stream size : 190 MiB (7%)
    Title : Original
    Language : English
    Default : No
    Forced : No
    Text
    ID : 4
    Format : UTF-8
    Codec ID : S_TEXT/UTF8
    Codec ID/Info : UTF-8 Plain Text
    Duration : 40 min 30 s
    Bit rate : 85 b/s
    Count of elements : 788
    Stream size : 25.3 KiB (0%)
    Title : English
    Language : English
    Default : No
    Forced : No


    Онлайн видео Медики Чикаго



    Медики Чикаго/Chicago Med (2019) WEB-DLRip [H.264/1080p-LQ] (сезон 5, серии 1-4 из 22) TVShows (обновляемая)
    Рейтинг →
     (голосов: 1, оценка 3/5, голосовать можно 1 раз )

    Другие торренты по теме:

  • Медики Чикаго / Chicago Med (2015) HDTVRip [H.264 / 720p -LQ] (сезон 1, серия 1 из ) Sunshine Studio (обновляемая) скачать через торрент бесплатно
  • Медики Чикаго / Chicago Med (2015) WEB-DLRip [H.264 / 720p-LQ] (сезон 1, серия 1 из 13) Шадинский (обновляемая) скачать через торрент бесплатно
  • Медики Чикаго / Chicago Med (2015) WEB-DLRip (сезон 1, серии 1 из 13) BaibaKo (обновляемая) скачать через торрент бесплатно
  • Медики Чикаго / Chicago Med (2016) WEB-DLRip (сезон 2, серии 1-3 из 18) Шадинский (обновляемая)
  • Медики Чикаго / Chicago Med (2016) WEB-DLRip (сезон 2, серии 1-14 из 18) Шадинский (обновляемая)
  • Медики Чикаго / Chicago Med (2017) WEBRip (сезон 3,серии 1-4 из 23) BaibaKo (обновляемая) [AD]
  • Медики Чикаго / Chicago Med (2018) WEB-DL [H.264 / 1080p-LQ] (сезон 4, серии 1-4 из 20) TVShows (обновляемая)
  • Медики Чикаго / Chicago Med (2017) WEB-DL [H.264 / 1080p] (сезон 3, серии 1-20 из 20) Шадинский


    • Комментарии (0):

      Информация

      Информация

        Посетители, находящиеся в группе Гости, не могут оставлять комментарии в данной новости.

        ↓ Меню




        ↓ Опрос

        Вы добавили сайт в закладки?
        Да
        Нет


        Популярное