.
Авторизация | Регистрация

bitok.xyz

» » 9-1-1 / 9-1-1 (2019) WEB-DL [H.264 / 1080p] (сезон 3, серии 1-4 из 18) TVShows (обновляемая) торрент скачать бесплатно


    9-1-1 / 9-1-1 (2019) WEB-DL [H.264 / 1080p] (сезон 3, серии 1-4 из 18) TVShows (обновляемая) торрент скачать бесплатно

    Дата: 26-10-2019, 05:00 | .torrent скачали: 0

    9-1-1 / 9-1-1 (2019) WEB-DL [H.264 / 1080p] (сезон 3, серии 1-4 из 18) TVShows (обновляемая)Производство: США
    Жанр: боевик, триллер, драма
    Режиссер: Брэдли Букер, Гвинет Хердер-Пэйтон, Дженнифер Линч

    Актеры
    Анджела Бассетт, Питер Краузе, Оливер Старк, Аиша Хайндс, Кеннет Чои, Рокмонд Данбар, Корина Мессиа, Маркантони Реис, Дженнифер Лав Хьюитт, Райан Гузман и др.

    Описание

    Сериал расскажет о работе полицейских, Скорой помощи и пожарной службы. Все они выполняют свой долг, часто рискуя жизнью и попадая в самые пугающие и шокирующие ситуации. Смысл их ежедневной работы состоит в охране безопасности улиц и помощи всем, кто в ней нуждается. Полицейские, пожарные и парамедики работают бок о бок в жестких условиях большого города. Эти экстренные службы должны стараться балансировать, спасая тех, кто находится в наиболее уязвимом положении, и при этом решать проблемы в их собственной жизни.

    Возраст: 16+ (зрителям, достигшим 16 лет)
    Продолжительность: ~00: 44: 00 серия
    Качество видео: WEB-DL
    Перевод: Многоголосый профессиональный -TVShows
    Субтитры: английские
    Видео: AVC/H.264, 1920x1080 (16: 9), ~9 439 Kbps
    Аудио 1: AC3, 6 ch, 384 Kbps — русский
    Аудио 2: Е-AC3, 6 ch, 640 Kbps — английский
    General
    Unique ID : 325722177352541924526423243990961751262 (0xF50BCF3AD4858C1A9769DBE2CC9004DE)
    Complete name : E: фильмы9-1-1.S03.1080p.TVShows9-1-1.S03E01.1080p.TVShows.mkv
    Format : Matroska
    Format version : Version 4/Version 2
    File size : 3.18 GiB
    Duration : 43 min 28 s
    Overall bit rate : 10.5 Mb/s
    Encoded date : UTC 2019-10-04 12: 06: 50
    Writing application : mkvmerge v33.1.0 (\'Primrose\') 64-bit
    Writing library : libebml v1.3.7 + libmatroska v1.5.0
    Video
    ID : 1
    Format : AVC
    Format/Info : Advanced Video Codec
    Format profile : High@L4
    Format settings, CABAC : Yes
    Format settings, ReFrames : 4 frames
    Codec ID : V_MPEG4/ISO/AVC
    Duration : 43 min 28 s
    Bit rate mode : Constant
    Bit rate : 9 439 kb/s
    Nominal bit rate : 10 000 kb/s
    Width : 1 920 pixels
    Height : 1 080 pixels
    Display aspect ratio : 16: 9
    Frame rate mode : Constant
    Frame rate : 23.976 (24000/1001) FPS
    Color space : YUV
    Chroma subsampling : 4: 2: 0
    Bit depth : 8 bits
    Scan type : Progressive
    Bits/(Pixel*Frame) : 0.190
    Stream size : 2.87 GiB (90%)
    Default : Yes
    Forced : No
    Color range : Limited
    Color primaries : BT.709
    Transfer characteristics : BT.709
    Matrix coefficients : BT.709
    Audio #1
    ID : 2
    Format : AC-3
    Format/Info : Audio Coding 3
    Mode extension : CM (complete main)
    Format settings, Endianness : Big
    Codec ID : A_AC3
    Duration : 43 min 28 s
    Bit rate mode : Constant
    Bit rate : 384 kb/s
    Channel(s) : 6 channels
    Channel positions : Front: L C R, Side: L R, LFE
    Sampling rate : 48.0 kHz
    Frame rate : 31.250 FPS (1536 spf)
    Compression mode : Lossy
    Stream size : 119 MiB (4%)
    Title : TVShows
    Language : Russian
    Default : Yes
    Forced : Yes
    Audio #2
    ID : 3
    Format : E-AC-3
    Format/Info : Audio Coding 3
    Format settings, Endianness : Big
    Codec ID : A_EAC3
    Duration : 43 min 28 s
    Bit rate mode : Constant
    Bit rate : 640 kb/s
    Channel(s) : 6 channels
    Channel positions : Front: L C R, Side: L R, LFE
    Sampling rate : 48.0 kHz
    Frame rate : 187.500 FPS (256 spf)
    Compression mode : Lossy
    Stream size : 199 MiB (6%)
    Title : Original
    Language : English
    Default : No
    Forced : No
    Text
    ID : 4
    Format : UTF-8
    Codec ID : S_TEXT/UTF8
    Codec ID/Info : UTF-8 Plain Text
    Duration : 43 min 25 s
    Bit rate : 97 b/s
    Count of elements : 1038
    Stream size : 31.0 KiB (0%)
    Title : English
    Language : English
    Default : No
    Forced : No


    9-1-1/9-1-1 (2019) WEB-DL [H.264/1080p] (сезон 3, серии 1-4 из 18) TVShows (обновляемая)
    Рейтинг →
     (голосов: 1, оценка 3/5, голосовать можно 1 раз )

    Другие торренты по теме:

  • Ван Хельсинг / Van Helsing (2016) WEB-DL (сезон 1, серии 1 из 13) LostFilm [MP4|1280x720]
  • Хеп и Леонард / Hap and Leonard (2016) WEB-DL (сезон 1, серии 1 из 6) [H.264 / 1080p-LQ] NewStudio (обновляемая)
  • Двойка / The Deuce (2017) WEB-DL (сезон 1, серии 1-8 из 8) Amedia [1080p] ATV
  • В лучшем мире / The Good Place (2018) WEB-DL (сезон 3, серии 1-5 из 13) TVShows (обновляемая)
  • Ты - воплощение порока / Ты - Отстой / Youre The Worst (2019) WEB-DL (сезон 5, серии 1 из 13) NewStudio (обновляемая) [AD]
  • Тигтон / Tigtone (2019) WEB-DL (сезон 1, серии 1 из 11) [MVO] NewStation
  • Американские боги / American Gods (2019) WEB-DL (сезон 2, серии 1 из 8) [1080p] ATV (обновляемая)
  • Космический рубеж / Final Space (2019) WEB-DL (Сезон 2, Серии 1-2 из 10) NewStation


    • Комментарии (0):

      Информация

      Информация

        Посетители, находящиеся в группе Гости, не могут оставлять комментарии в данной новости.

        ↓ Меню




        ↓ Опрос

        Вы добавили сайт в закладки?
        Да
        Нет


        Популярное