.
Авторизация | Регистрация

bitok.xyz

» » Игра Престолов / Game of Thrones (2011-2019) WEB-DLRip / BDRip [H.264] (сезон 1-8, серии 1-73 из 73) Solod торрент скачать бесплатно


    Игра Престолов / Game of Thrones (2011-2019) WEB-DLRip / BDRip [H.264] (сезон 1-8, серии 1-73 из 73) Solod торрент скачать бесплатно

    Дата: 26-10-2019, 05:00 | .torrent скачали: 2

    Игра Престолов / Game of Thrones (2011-2019) WEB-DLRip / BDRip [H.264] (сезон 1-8, серии 1-73 из 73) SolodПроизводство: США, Великобритания
    Жанр: фэнтези, драма, боевик, мелодрама, приключения
    Режиссер: Джереми Подесва, Марк Майлод, Мэтт Шекман, Алан Тейлор

    Актеры
    Питер Динклэйдж, Лина Хиди, Эмилия Кларк, Кит Харингтон, Николай Костер-Вальдау, Мэйси Уильямс, Софи Тернер, Шон Бин, Чарльз Дэнс

    Описание

    Игра престолов - сериал HBO, основанный на бестселлерах Джорджа Р.Р.
    Мартина. В мире, где лето и зимы длятся десятилетиями, на кону корона Вестероса.
    Предательство, похоть, интриги и сверхъестественные силы сотрясают все четыре
    стороны Королевства — от плетущего интриги юга, диких восточных земель, до
    замерзшего севера и древней Стены, что защищает королевство от тьмы за нею. Короли и королевы, рыцари и мятежники, лжецы и благородные люди борются за власть в кровавом сражении за Железный Трон.

    Возраст: 18+ (зрителям, достигшим 18 лет. запрещено для детей)
    Релиз от: VoiceOver Solod
    Продолжительность: ~00: 59: 00 серия
    Качество видео: WEB-DLRip
    Перевод: Одноголосый закадровый авторский - Solod
    Видео: AVC/H.264, 1024x576, ~1600 kbps
    Аудио: AC3, 6 ch, 448 kbps
    General
    Unique ID : 92695392400379013565196083661082524972 (0x45BC7BB28A5CC75FA70312299DE8FD2C)
    Complete name : game.of.thrones.s01-08.2011-2019.solod.rus.webdl.bd.rips/game.of.thrones.s01.2011.solod.rus.bdrip/game.of.thrones.s01e01.2011.winter.is.coming.1024.solod.rus.5.1.mkv
    Format : Matroska
    Format version : Version 4
    File size : 903 MiB
    Duration : 1 h 1 min
    Overall bit rate : 2 050 kb/s
    Movie name : Game of Thrones | S01E01 | 2011 | Solod
    Encoded date : UTC 2017-04-17 19: 12: 28/UTC 2017-03-14T02: 03: 15Z
    Writing application : mkvmerge v10.0.0 (\'To Drown In You\') 64bit
    Writing library : libebml v1.3.4 + libmatroska v1.4.5/Lavf57.7.2
    Video
    ID : 1
    Format : AVC
    Format/Info : Advanced Video Codec
    Format profile : High@L4.1
    Format settings : CABAC/10 Ref Frames
    Format settings, CABAC : Yes
    Format settings, ReFrames : 10 frames
    Codec ID : V_MPEG4/ISO/AVC
    Duration : 1 h 1 min
    Bit rate : 1 600 kb/s
    Width : 1 024 pixels
    Height : 576 pixels
    Display aspect ratio : 16: 9
    Frame rate mode : Constant
    Frame rate : 23.976 (24000/1001) FPS
    Color space : YUV
    Chroma subsampling : 4: 2: 0
    Bit depth : 8 bits
    Scan type : Progressive
    Bits/(Pixel*Frame) : 0.113
    Stream size : 688 MiB (76%)
    Writing library : x264 core 148
    Encoding settings : cabac=1/ref=10/deblock=1: -2: -2/analyse=0x3: 0x113/me=umh/subme=11/psy=1/psy_rd=1.00: 10.00/mixed_ref=1/me_range=24/chroma_me=1/trellis=2/8x8dct=1/cqm=0/deadzone=21, 11/fast_pskip=1/chroma_qp_offset=-4/threads=6/lookahead_threads=1/sliced_threads=0/nr=0/decimate=1/interlaced=0/bluray_compat=0/constrained_intra=0/bframes=11/b_pyramid=2/b_adapt=1/b_bias=0/direct=1/weightb=1/open_gop=0/weightp=2/keyint=240/keyint_min=24/scenecut=40/intra_refresh=0/rc_lookahead=40/rc=2pass/mbtree=1/bitrate=1600/ratetol=1.0/qcomp=0.60/qpmin=0/qpmax=69/qpstep=4/cplxblur=20.0/qblur=0.5/vbv_maxrate=62500/vbv_bufsize=78125/nal_hrd=none/filler=0/ip_ratio=1.40/aq=1: 1.00
    Default : Yes
    Forced : No
    Color range : Limited
    Color primaries : BT.601 NTSC
    Transfer characteristics : BT.709
    Matrix coefficients : BT.601
    Statistics Tags Issue : mkvmerge v10.0.0 (\'To Drown In You\') 64bit 2017-04-17 19: 12: 28/mkvmerge v10.0.0 (\'To Drown In You\') 64bit 2017-04-17 19: 12: 28/UTC 2017-03-14T02: 03: 15Z
    FromStats_BitRate : 1600257
    FromStats_Duration : 01: 01: 37.110000000
    FromStats_FrameCount : 88642
    FromStats_StreamSize : 739540842
    Audio
    ID : 2
    Format : AC-3
    Format/Info : Audio Coding 3
    Commercial name : Dolby Digital
    Codec ID : A_AC3
    Duration : 1 h 1 min
    Bit rate mode : Constant
    Bit rate : 448 kb/s
    Channel(s) : 6 channels
    Channel layout : L R C LFE Ls Rs
    Sampling rate : 48.0 kHz
    Frame rate : 31.250 FPS (1536 SPF)
    Bit depth : 16 bits
    Compression mode : Lossy
    Stream size : 197 MiB (22%)
    Title : vo solod
    Language : Russian
    Service kind : Complete Main
    Default : Yes
    Forced : No
    Statistics Tags Issue : mkvmerge v10.0.0 (\'To Drown In You\') 64bit 2017-04-17 19: 12: 28/mkvmerge v10.0.0 (\'To Drown In You\') 64bit 2017-04-17 19: 12: 28/UTC 2017-03-14T02: 03: 15Z
    FromStats_BitRate : 448000
    FromStats_Duration : 01: 01: 37.056000000
    FromStats_FrameCount : 115533
    FromStats_StreamSize : 207035136
    Menu
    00: 00: 00.000 : : 00: 00: 00.000
    00: 00: 06.006 : : 00: 00: 06.006
    00: 07: 16.478 : : 00: 07: 16.436
    00: 08: 56.578 : : 00: 08: 56.536
    00: 18: 14.510 : : 00: 18: 14.510
    00: 28: 46.558 : : 00: 28: 46.558
    00: 39: 35.582 : : 00: 39: 35.582
    00: 50: 00.039 : : 00: 50: 00.039
    01: 00: 32.671 : : 01: 00: 32.629

    Скриншоты для ознакомления



    Все одноименные релизы в Клубе
    Время раздачи: 24/7 (до появления первых 3-5 скачавших)

    Онлайн видео Игра Престолов



    Игра Престолов/Game of Thrones (2011-2019) WEB-DLRip/BDRip [H.264] (сезон 1-8, серии 1-73 из 73) Solod
    Рейтинг →
     (голосов: 1, оценка 3/5, голосовать можно 1 раз )

    Другие торренты по теме:

  • Джордж Мартин | Игра престолов [сборник] (2011) [FB2] скачать через торрент бесплатно
  • Game of Thrones / Игра Престолов v.1.23 Мод (2015) <Ru>
  • Ramin Djawadi - Игра престолов / Game of Thrones (Music from the HBO Series) Season 5 (2015) [AAC|WEB-DL|256 кб / с]<Soundtrack> скачать через торрент бесплатно
  • Ramin Djawadi - Игра престолов / Game of Thrones (Music from the HBO Series) Season 5 (2015) [MP3|320 кб / с]<Soundtrack> скачать через торрент бесплатно
  • Джордж Мартин | Игра престолов. Часть I (2015) [FB2]
  • Джордж Мартин | Игра престолов. Часть II (2016) [FB2]
  • Тим Филлипс, Ребекка Клэйр | Игра престолов. Уроки для жизни и бизнеса (2016) [FB2]
  • Ramin Djawadi - Game of Thrones / Игра престолов (Music from the HBO Series) Season 6 (2016) [AAC|WEB-DL|256 кб / с]<Soundtrack>


    • Комментарии (0):

      Информация

      Информация

        Посетители, находящиеся в группе Гости, не могут оставлять комментарии в данной новости.

        ↓ Меню




        ↓ Опрос

        Вы добавили сайт в закладки?
        Да
        Нет


        Популярное