.
Авторизация | Регистрация

bitok.xyz

» » Сверхъестественное / Supernatural (2019) WEB-DLRip [H.264] (сезон 15, серии 1 из 20) NewStudio & NovaFilm (обновляемая) торрент скачать бесплатно


    Сверхъестественное / Supernatural (2019) WEB-DLRip [H.264] (сезон 15, серии 1 из 20) NewStudio & NovaFilm (обновляемая) торрент скачать бесплатно

    Дата: 26-10-2019, 05:00 | .torrent скачали: 0

    Сверхъестественное / Supernatural (2019) WEB-DLRip [H.264] (сезон 15, серии 1 из 20) NewStudio & NovaFilm (обновляемая)Производство: США/Kripke Enterprises, Supernatural Films, Warner Bros. Television, Wonderland Sound and Vision
    Жанр: ужасы, фэнтези, триллер, драма, детектив
    Режиссер: Роберт Сингер, Дженсен Эклс, Джон Шоуолтер

    Актеры
    Джаред Падалеки, Дженсен Эклс, Александр Калверт, Миша Коллинз, Джейк Абель, Джованна Хьюджет, Дэвид Хайдн-Джонс, Крис Ноуленд, Рут Коннелл и др.

    Описание

    Сериал рассказывает о приключениях братьев Сэма и Дина Винчестеров, которые путешествуют по Соединённым Штатам на чёрном автомобиле Chevrolet Impala 1967 года, расследуют паранормальные явления, многие из которых основаны на американских городских легендах и фольклоре, и сражаются с порождениями зла, такими как демоны и призраки.

    Возраст: 16+ (зрителям, достигшим 16 лет)
    Релиз от: winchester00100010
    Продолжительность: ~00: 43: 00 серия
    Качество видео: WEB-DLRip
    Перевод: Многоголосый профессиональный (NewStudio NovaFilm с голосами дубляжа)
    Субтитры: отсутствуют
    Реклама: Без рекламы
    Видео: AVC/H.264, 1024х576, ~2825 kbps
    Аудио: AC3, 6 ch, 384 kbps
    x264 info: profile High, level 4.1
    x264 info: frame I: 604 Avg QP: 14.62 size: 85925
    x264 info: frame P: 13881 Avg QP: 17.76 size: 30291
    x264 info: frame B: 44989 Avg QP: 19.16 size: 8961
    Общее
    Уникальный идентификатор : 217923247854396892785749196849626075468 (0xA3F27DA923514BB4BFAED24D73F1D14C)
    Полное имя : D: МОИ РАЗДАЧИ ФИЛЬМЫ И СЕРИАЛЫSupernatural.S15.2019.WEB-DLRip-AVCSupernatural.S15E01.Back.and.to.the.Future.WEB-DLRip-AVC.mkv
    Формат : Matroska
    Версия формата : Version 2
    Размер файла : 949 Мбайт
    Продолжительность : 41 м. 20 с.
    Общий поток : 3209 Кбит/сек
    Дата кодирования : UTC 2019-10-20 21: 55: 49
    Программа кодирования : mkvmerge v5.8.0 (\'No Sleep/Pillow\') built on Sep 2 2012 15: 37: 04
    Библиотека кодирования : libebml v1.2.3 + libmatroska v1.3.0
    Видео
    Идентификатор : 1
    Формат : AVC
    Формат/Информация : Advanced Video Codec
    Профиль формата : High@L4.1
    Настройки формата : CABAC/12 Ref Frames
    Параметр CABAC формата : Да
    Параметр RefFrames формата : 12 кадров
    Идентификатор кодека : V_MPEG4/ISO/AVC
    Продолжительность : 41 м. 20 с.
    Битрейт : 2825 Кбит/сек
    Ширина : 1024 пикселя
    Высота : 576 пикселей
    Соотношение сторон : 16: 9
    Режим частоты кадров : Постоянный
    Частота кадров : 23, 976 (24000/1001) кадра/сек
    Цветовое пространство : YUV
    Субдискретизация насыщенности : 4: 2: 0
    Битовая глубина : 8 бит
    Тип развёртки : Прогрессивная
    Бит/(Пиксели*Кадры) : 0.200
    Размер потока : 817 Мбайт (86%)
    Библиотека кодирования : x264 core 146 r2538 121396c
    Настройки программы : cabac=1/ref=12/deblock=1: -3: -3/analyse=0x3: 0x113/me=umh/subme=10/psy=1/psy_rd=1.00: 0.15/mixed_ref=1/me_range=32/chroma_me=1/trellis=2/8x8dct=1/cqm=0/deadzone=21, 11/fast_pskip=0/chroma_qp_offset=-3/threads=12/lookahead_threads=2/sliced_threads=0/nr=0/decimate=0/interlaced=0/bluray_compat=0/constrained_intra=0/bframes=10/b_pyramid=2/b_adapt=2/b_bias=0/direct=3/weightb=1/open_gop=0/weightp=2/keyint=240/keyint_min=23/scenecut=40/intra_refresh=0/rc_lookahead=40/rc=2pass/mbtree=0/bitrate=2825/ratetol=1.0/qcomp=0.60/qpmin=0/qpmax=69/qpstep=4/cplxblur=20.0/qblur=0.5/vbv_maxrate=50000/vbv_bufsize=62500/nal_hrd=none/filler=0/ip_ratio=1.40/pb_ratio=1.30/aq=1: 0.90
    Язык : English
    Default : Да
    Forced : Нет
    Аудио
    Идентификатор : 2
    Формат : AC-3
    Формат/Информация : Audio Coding 3
    Коммерческое название : Dolby Digital
    Идентификатор кодека : A_AC3
    Продолжительность : 41 м. 20 с.
    Вид битрейта : Постоянный
    Битрейт : 384 Кбит/сек
    Каналы : 6 каналов
    ChannelLayout : L R C LFE Ls Rs
    Частота : 48, 0 КГц
    Частота кадров : 31, 250 кадров/сек (1536 SPF)
    Метод сжатия : С потерями
    Размер потока : 114 Мбайт (12%)
    ServiceKind/String : Complete Main
    Default : Да
    Forced : Нет


    Онлайн видео Сверхъестественное



    Сверхъестественное/Supernatural (2019) WEB-DLRip [H.264] (сезон 15, серии 1 из 20) NewStudio & NovaFilm (обновляемая)
    Рейтинг →
     (голосов: 1, оценка 3/5, голосовать можно 1 раз )

    Другие торренты по теме:

  • Сверхъестественное / Supernatural (2014) WEB-DLRip [720p] (сезон 10, серии 1 из ) LostFilm (oбновляемая)
  • Сверхъестественное / Supernatural (2014-2015) WEB-DLRip [H.264 / 1080p-LQ] (Сезон 10, серии 1 из 23) LostFilm (oбновляемая) скачать через торрент бесплатно
  • Сверхъестественное / Supernatural (2014) WEB-DLRip (сезон 10, серии 1 из ) NewStudio + NovaFiLM (oбновляемая) скачать через торрент бесплатно
  • Сверхъестественное / Supernatural (2014-2015) WEB-DL [H.264 / 1080p-LQ] (Сезон 10, серии 1 из 23) LostFilm (Обновляемая)
  • Сверхъестественное / Supernatural (2014) HDTVRip (Сезон 10, 1-2 серия из 23) [DreamRecords] (Обновляемая)
  • Сверхъестественное / Supernatural (2014) WEB-DLRip (сезон 10, серии 1-2 из ) BaibaKo (oбновляемая) скачать через торрент бесплатно
  • Сверхъестественное / Supernatural (2014-2015) HDTVRip (Сезон 10, серии 0-2 из 23) [EN EN, RU Sub] (Обновляемая) скачать через торрент бесплатно
  • Сверхъестественное / Supernatural (2014) WEB-DLRip (сезон 10, серии 1-2 из ) LostFilm (oбновляемая) скачать через торрент бесплатно


    • Комментарии (0):

      Информация

      Информация

        Посетители, находящиеся в группе Гости, не могут оставлять комментарии в данной новости.

        ↓ Меню




        ↓ Опрос

        Вы добавили сайт в закладки?
        Да
        Нет


        Популярное